[Hành Động] Thick As Thieves 2009 BluRay Remux 1080p AVC DTS-HD MA 5 1-HiFi - Kẻ Cắp Gặp Ông Già

Thảo luận trong 'Bluray Remux' bắt đầu bởi xemaydinh, 25/10/21.

  1. xemaydinh

    xemaydinh Tem

    Tham gia ngày:
    3/7/10
    Bài viết:
    31,545
    Đã được cảm ơn:
    141,750
    Thick As Thieves 2009 BluRay Remux 1080p AVC DTS-HD MA 5 1-HiFi

    Kẻ Cắp Gặp Ông Già

    [​IMG]



    Phim Kẻ Cắp Gặp Ông Già kể về Keith Ripley (Morgan Freeman), một tên trộm chuyên nghiệp, là vị khách quen thuộc của các bảo tàng lớn trên thế giới, đang đi tìm cộng sự cùng mình thực hiện một phi vụ đặc biệt để trả nợ cho ông trùm mafia Nga.Sau nhiều năm, Ripley đã tìm được kẻ đồng hành, đó là tên cướp kim cương nổi tiếng ở Miami, Gabriel (Antonio Banderas). Thu gọn


    General
    Unique ID : 212088517224027488645346380477056651588 (0x9F8EC33AF3026B3090E97C28C70B9144)
    Complete name : Thick.As.Thieves.2009.BluRay.Remux.1080p.AVC.DTS-HD.MA.5.1-HiFi.mkv
    Format : Matroska
    Format version : Version 4
    File size : 16.1 GiB
    Duration : 1 h 43 min
    Overall bit rate mode : Variable
    Overall bit rate : 22.2 Mb/s
    Movie name : Thick As Thieves (2009)
    Encoded date : UTC 2017-06-30 05:49:44
    Writing application : mkvmerge v13.0.0 ('The Juggler') 64bit
    Writing library : libebml v1.3.4 + libmatroska v1.4.5

    Video
    ID : 1
    Format : AVC
    Format/Info : Advanced Video Codec
    Format profile : [email protected]
    Format settings : CABAC / 4 Ref Frames
    Format settings, CABAC : Yes
    Format settings, ReFrames : 4 frames
    Codec ID : V_MPEG4/ISO/AVC
    Duration : 1 h 43 min
    Bit rate mode : Variable
    Bit rate : 20.0 Mb/s
    Maximum bit rate : 35.0 Mb/s
    Width : 1 920 pixels
    Height : 1 080 pixels
    Display aspect ratio : 16:9
    Frame rate mode : Constant
    Frame rate : 23.976 (24000/1001) FPS
    Standard : NTSC
    Color space : YUV
    Chroma subsampling : 4:2:0
    Bit depth : 8 bits
    Scan type : Progressive
    Bits/(Pixel*Frame) : 0.402
    Stream size : 14.5 GiB (90%)
    Title : MPEG-4 AVC Video / 20021 kbps / 1080p / 23.976 fps / 16:9 / High Profile 4.1
    Language : English
    Default : Yes
    Forced : No
    Color range : Limited
    Color primaries : BT.709
    Transfer characteristics : BT.709
    Matrix coefficients : BT.709

    Audio
    ID : 2
    Format : DTS XLL
    Format/Info : Digital Theater Systems
    Commercial name : DTS-HD Master Audio
    Codec ID : A_DTS
    Duration : 1 h 43 min
    Bit rate mode : Variable
    Bit rate : 2 190 kb/s
    Channel(s) : 6 channels
    Channel layout : C L R Ls Rs LFE
    Sampling rate : 48.0 kHz
    Frame rate : 93.750 FPS (512 SPF)
    Bit depth : 16 bits
    Compression mode : Lossless
    Stream size : 1.59 GiB (10%)
    Title : DTS-HD Master Audio / 5.1 / 48 kHz / 2186 kbps / 16-bit
    Language : English
    Default : Yes
    Forced : No

    Text #1
    ID : 3
    Format : UTF-8
    Codec ID : S_TEXT/UTF8
    Codec ID/Info : UTF-8 Plain Text
    Duration : 1 h 37 min
    Bit rate : 48 b/s
    Count of elements : 1220
    Stream size : 34.6 KiB (0%)
    Language : English
    Default : No
    Forced : No

    Text #2
    ID : 4
    Format : PGS
    Muxing mode : zlib
    Codec ID : S_HDMV/PGS
    Codec ID/Info : Picture based subtitle format used on BDs/HD-DVDs
    Duration : 1 h 39 min
    Bit rate : 58.4 kb/s
    Count of elements : 2642
    Stream size : 41.5 MiB (0%)
    Title : SDH
    Language : English
    Default : No
    Forced : No

    Text #3
    ID : 5
    Format : PGS
    Muxing mode : zlib
    Codec ID : S_HDMV/PGS
    Codec ID/Info : Picture based subtitle format used on BDs/HD-DVDs
    Duration : 1 h 34 min
    Bit rate : 17.8 kb/s
    Count of elements : 1890
    Stream size : 12.1 MiB (0%)
    Language : Chinese
    Default : No
    Forced : No

    Menu
    00:00:00.000 : en:Main Titles
    00:08:54.659 : en:Stay Anonymous
    00:21:31.165 : en:Call This Interest
    00:30:27.242 : en:Taking Chances
    00:42:07.400 : en:Cop for a Night
    00:52:02.703 : en:Call Off Your Dogs
    01:01:54.961 : en:Get In
    01:11:11.100 : en:Twenty-Two Hundred
    01:22:35.659 : en:Cracking the Safe
    01:33:09.292 : en:Even Exchange



    mhd

    720p

    1080p

    Thuyết minh

    Remux

    ISO
     
    chipsteps and cuongnho like this.
  2. Đang tải...


Chia sẻ trang này