[Hành Động | Viễn Tưởng] Kill Command 2016 1080p WEB-DL DD5.1 H264-FGT - Cuộc Chiến Chống Người Máy

Thảo luận trong 'WEB-DL, HDTV' bắt đầu bởi Martial, 15/5/16.

  1. Martial

    Martial New Member

    Tham gia ngày:
    6/4/16
    Bài viết:
    421
    Đã được cảm ơn:
    477
    Kill Command 2016 1080p WEB-DL DD5.1 H264-FGT
    Cuộc Chiến Chống Người Máy



    [​IMG]

    Phim Kill Command 2016: thuộc thể loại hành động viễn tưởng lấy bối cảnh tương lai xa khi con người chiến đấu với máy móc.


    Mã:
    Video
    ID                                       : 1
    Format                                   : AVC
    Format/Info                              : Advanced Video Codec
    Format profile                           : [email protected]
    Format settings, CABAC                   : Yes
    Format settings, ReFrames                : 5 frames
    Codec ID                                 : V_MPEG4/ISO/AVC
    Duration                                 : 1h 39mn
    Bit rate                                 : 4 245 Kbps
    
    
    Width                                    : 1 916 pixels
    Height                                   : 796 pixels
    Display aspect ratio                     : 2.40:1
    Frame rate mode                          : Constant
    Frame rate                               : 24.000 fps
    Color space                              : YUV
    Chroma subsampling                       : 4:2:0
    Bit depth                                : 8 bits
    Scan type                                : Progressive
    Bits/(Pixel*Frame)                       : 0.116
    Stream size                              : 2.95 GiB (90%)
    Title                                    : Kill.Command.2016.1080p.WEB-DL.DD5.1.H264-FGT
    Language                                 : English
    Default                                  : Yes
    Forced                                   : No
    Color range                              : Limited
    Color primaries                          : BT.709
    Transfer characteristics                 : BT.709
    Matrix coefficients                      : BT.709
    Audio
    ID                                       : 2
    Format                                   : AC-3
    Format/Info                              : Audio Coding 3
    Mode extension                           : CM (complete main)
    Format settings, Endianness              : Big
    Codec ID                                 : A_AC3
    Duration                                 : 1h 39mn
    Bit rate mode                            : Constant
    Bit rate                                 : 384 Kbps
    Channel(s)                               : 6 channels
    Channel positions                        : Front: L C R, Side: L R, LFE
    Sampling rate                            : 48.0 KHz
    Frame rate                               : 31.250 fps (1536 spf)
    Compression mode                         : Lossy
    Stream size                              : 274 MiB (8%)
    Title                                    : Kill.Command.2016.1080p.WEB-DL.DD5.1.H264-FGT
    Language                                 : English
    Default                                  : Yes
    Forced                                   : No
    Menu
    00:00:00.000                             : en:Chapter 1
    00:10:12.416                             : en:Chapter 2
    00:17:08.666                             : en:Chapter 3
    00:25:42.832                             : en:Chapter 4
    00:36:12.457                             : en:Chapter 5
    00:44:49.540                             : en:Chapter 6
    00:54:52.581                             : en:Chapter 7
    01:01:36.914                             : en:Chapter 8
    01:09:21.622                             : en:Chapter 9
    01:17:54.122                             : en:Chapter 10
    01:26:42.997                             : en:Chapter 11
    01:32:24.288                             : en:Chapter 12

    Hình Ảnh
    [​IMG] [​IMG] [​IMG] [​IMG] [​IMG] [​IMG] [​IMG] [​IMG] [​IMG] [​IMG] [​IMG] [​IMG] [​IMG] [​IMG] [​IMG] [​IMG] [​IMG] [​IMG] [​IMG]
    Trailer
    [video=youtube;TPLEjs7im9c]https://www.youtube.com/watch?v=TPLEjs7im9c [/video]

    Download

    https://www.fshare.vn/file/EH2I3OUWT2LI

    Link 4Share

    https://4share.vn/f/281c10111a181911

    Phụ Đề
     
    Chỉnh sửa cuối: 18/5/16
  2. Đang tải...


  3. hieule8673

    hieule8673 New Member

    Tham gia ngày:
    4/1/10
    Bài viết:
    3
    Đã được cảm ơn:
    0
    Ðề: [Hành Động | Viễn Tưởng] Kill Command 2016 1080p WEB-DL DD5.1 H264-FGT - Cuộc Chiến Chống Người Máy

    chua có sub nhỉ?
     
  4. trict75

    trict75 Member

    Tham gia ngày:
    27/11/08
    Bài viết:
    100
    Đã được cảm ơn:
    13
    Giới tính:
    Nam
    Ðề: [Hành Động | Viễn Tưởng] Kill Command 2016 1080p WEB-DL DD5.1 H264-FGT - Cuộc Chiến Chống Người Máy

    quá hấp dẫn tiếc là chưa có sub đợi thôi .
     
  5. Martial

    Martial New Member

    Tham gia ngày:
    6/4/16
    Bài viết:
    421
    Đã được cảm ơn:
    477
    Ðề: [Hành Động | Viễn Tưởng] Kill Command 2016 1080p WEB-DL DD5.1 H264-FGT - Cuộc Chiến Chống Người Máy

    đã update link 4share
     

Chia sẻ trang này