[Fshare] [Hành động] Young and Dangerous The Prequel 1998 1080p NF WEB-DL DDP2.0 - Thiếu Niên Hạo Nam (USLT)

Thảo luận trong 'Phim có audio Việt' bắt đầu bởi tamquocgia94, 17/5/20.

  1. tamquocgia94

    tamquocgia94 Well-Known Member

    Tham gia ngày:
    30/10/17
    Bài viết:
    1,348
    Đã được cảm ơn:
    48,654
    Giới tính:
    Nam
    Nghề nghiệp:
    Osin tổng thống
    Nơi ở:
    Dubai
    Young and Dangerous The Prequel 1998 1080p NF WEB-DL DDP2.0 - Thiếu Niên Hạo Nam
    Lồng Tiếng + Sub Việt Mux Sẵn

    [​IMG]

    Mã:
    General
    
    
    	

    Unique ID : 238169438202998432197275081608994192949 (0xB32DC3E9DE66B6C9ACCD3F1FC84B7E35)

    Complete name : C:\Users\tamquocgia\Downloads\Young.and.Dangerous.The.Prequel.1998.LT.1080p.NF.WEB-DL.DDP2.0.x264-Ao.mkv Format : Matroska Format version : Version 4 / Version 2 File size : 6.32 GiB Duration : 1h 55mn Overall bit rate mode : Variable Overall bit rate : 7 856 Kbps Encoded date : UTC 2020-05-16 13:36:22 Writing application : mkvmerge v7.9.0 ('Birds') 32bit Writing library : libebml v1.3.1 + libmatroska v1.4.2 Video ID : 1 Format : AVC Format/Info : Advanced Video Codec Format profile : [email protected] Format settings, CABAC : Yes Format settings, ReFrames : 3 frames Codec ID : V_MPEG4/ISO/AVC Duration : 1h 55mn Bit rate mode : Variable Bit rate : 7 500 Kbps Maximum bit rate : 11.2 Mbps Width : 1 920 pixels Height : 1 080 pixels Display aspect ratio : 16:9 Frame rate mode : Constant Frame rate : 24.000 fps Color space : YUV Chroma subsampling : 4:2:0 Bit depth : 8 bits Scan type : Progressive Bits/(Pixel*Frame) : 0.151 Stream size : 6.01 GiB (95%) Writing library : x264 core 148 r2715 7e75228 Encoding settings : cabac=1 / ref=3 / deblock=1:0:0 / analyse=0x1:0x111 / me=umh / subme=10 / psy=1 / psy_rd=1.00:0.00 / mixed_ref=1 / me_range=24 / chroma_me=1 / trellis=2 / 8x8dct=0 / cqm=0 / deadzone=21,11 / fast_pskip=1 / chroma_qp_offset=-2 / threads=8 / lookahead_threads=1 / sliced_threads=0 / nr=0 / decimate=1 / interlaced=0 / bluray_compat=0 / stitchable=1 / constrained_intra=0 / bframes=2 / b_pyramid=0 / b_adapt=2 / b_bias=0 / direct=3 / weightb=1 / open_gop=0 / weightp=2 / keyint=250 / keyint_min=24 / scenecut=0 / intra_refresh=0 / rc_lookahead=48 / rc=2pass / mbtree=1 / bitrate=7500 / ratetol=1.0 / qcomp=0.50 / qpmin=6 / qpmax=51 / qpstep=4 / cplxblur=20.0 / qblur=0.5 / vbv_maxrate=11250 / vbv_bufsize=15000 / nal_hrd=vbr / filler=0 / ip_ratio=1.40 / aq=1:1.00 Default : Yes Forced : No Audio #1 ID : 2 Format : MPEG Audio Format version : Version 1 Format profile : Layer 3 Codec ID : A_MPEG/L3 Codec ID/Hint : MP3 Duration : 1h 55mn Bit rate mode : Constant Bit rate : 128 Kbps Channel(s) : 2 channels Sampling rate : 44.1 KHz Frame rate : 38.281 fps (1152 spf) Compression mode : Lossy Stream size : 105 MiB (2%) Title : Audio Young and Dangerous The Prequel 1998 Sync By HaiNguyen Language : Vietnamese Default : No Forced : No Audio #2 ID : 3 Format : MPEG Audio Format version : Version 1 Format profile : Layer 3 Codec ID : A_MPEG/L3 Codec ID/Hint : MP3 Duration : 1h 55mn Bit rate mode : Constant Bit rate : 128 Kbps Channel(s) : 2 channels Sampling rate : 44.1 KHz Frame rate : 38.281 fps (1152 spf) Compression mode : Lossy Stream size : 105 MiB (2%) Title : Mandarin Language : Chinese Default : Yes Forced : No Audio #3 ID : 4 Format : MPEG Audio Format version : Version 1 Format profile : Layer 3 Codec ID : A_MPEG/L3 Codec ID/Hint : MP3 Duration : 1h 55mn Bit rate mode : Constant Bit rate : 128 Kbps Channel(s) : 2 channels Sampling rate : 44.1 KHz Frame rate : 38.281 fps (1152 spf) Compression mode : Lossy Stream size : 105 MiB (2%) Title : Cantonese bOriginalB Language : Chinese Default : No Forced : No Text ID : 5 Format : UTF-8 Codec ID : S_TEXT/UTF8 Codec ID/Info : UTF-8 Plain Text Duration : 1h 54mn Bit rate : 81 bps Count of elements : 1755 Stream size : 68.2 KiB (0%) Language : Vietnamese Default : Yes Forced : No
    Note: Mình chỉ bỏ thời gian mux lại công lớn của bác adm820 và bác nguyennguyen12345678
    Link Tải Phim
    Nhấn nút Cảm ơn (dưới chân bài) để thấy link!
     
  2. Đang tải...


  3. babanbanhbao

    babanbanhbao Active Member

    Tham gia ngày:
    9/10/15
    Bài viết:
    305
    Đã được cảm ơn:
    143
    Giới tính:
    Nam
    Bạn ơi còn giữ bộ này hay Audio lồng tiếng không?
     

Chia sẻ trang này