[Fshare] Happy Family Gia đình là tất cả HTV3 HDTV

Thảo luận trong 'Phim hoạt hình' bắt đầu bởi minhtrung1410, 21/11/20.

  1. minhtrung1410

    minhtrung1410 Well-Known Member

    Tham gia ngày:
    17/11/13
    Bài viết:
    807
    Đã được cảm ơn:
    592
    Giới tính:
    Nam
    Nơi ở:
    VIỆT NAM
    [​IMG]
    General
    Unique ID : 195532827498783071360578395809037961689 (0x931A40B4D15CE00B883D2D70234849D9)
    Complete name : Happy Family Gia đình là tất cả HTV3.mkv
    Format : Matroska
    Format version : Version 4

    File size : 2.15 GiB

    Duration : 1 h 55 min
    Overall bit rate : 2 663 kb/s
    Encoded date : UTC 2020-10-31 06:31:21
    Writing application : mkvmerge v51.0.0 ('I Wish') 32-bit
    Writing library : libebml v1.4.0 + libmatroska v1.6.2 / Lavf58.29.100
    Video
    ID : 1
    Format : AVC
    Format/Info : Advanced Video Codec
    Format profile : [email protected]
    Format settings : CABAC / 3 Ref Frames
    Format settings, CABAC : Yes
    Format settings, Reference frames : 3 frames
    Codec ID : V_MPEG4/ISO/AVC
    Duration : 1 h 55 min
    Bit rate mode : Constant
    Bit rate : 2 500 kb/s
    Width : 1 280 pixels
    Height : 720 pixels
    Display aspect ratio : 16:9
    Frame rate mode : Constant
    Frame rate : 30.000 FPS
    Color space : YUV
    Chroma subsampling : 4:2:0
    Bit depth : 8 bits
    Scan type : Progressive
    Bits/(Pixel*Frame) : 0.090
    Stream size : 2.02 GiB (94%)
    Default : Yes
    Forced : No
    Color range : Limited
    Color primaries : BT.709
    Transfer characteristics : BT.709
    Matrix coefficients : BT.709
    Audio
    ID : 2
    Format : AAC LC
    Format/Info : Advanced Audio Codec Low Complexity
    Codec ID : A_AAC-2
    Duration : 1 h 55 min
    Bit rate : 161 kb/s
    Channel(s) : 2 channels
    Channel layout : L R
    Sampling rate : 48.0 kHz
    Frame rate : 46.875 FPS (1024 SPF)
    Compression mode : Lossy
    Delay relative to video : 38 ms
    Stream size : 133 MiB (6%)
    Title : Track1
    Default : Yes
    Forced : No

    link tải:
    https://www.fshare.vn/file/PB6LABETPTNI
     
    ahipsa, lmdhd and tinhyeu44 like this.
  2. kkristine

    kkristine New Member

    Tham gia ngày:
    10/3/21
    Bài viết:
    19
    Đã được cảm ơn:
    4
    up lai dc ko ad
     

Chia sẻ trang này