[Hình sự | 1 link] Une Nuit 2012 BluRay 720p DTS x264-HDS - Một Đêm

Thảo luận trong 'Fshare.vn' bắt đầu bởi boyvoz, 28/6/12.

  1. boyvoz

    boyvoz Well-Known Member

    Tham gia ngày:
    27/7/10
    Bài viết:
    397
    Đã được cảm ơn:
    299
    Une Nuit 2012 BluRay 720p DTS x264-HDS - Một Đêm
    [​IMG]

    Mã:
    Format                         : Matroska
    Format version                 : Version 2
    
    
    	

    File size : 4.80 GiB

    Duration : 1h 40mn Overall bit rate mode : Variable Overall bit rate : 6 831 Kbps Encoded date : UTC 2012-06-19 01:06:59 Writing application : mkvmerge v4.5.0 ('Speed of Light') built on Feb 1 2011 02:10:32 Writing library : libebml v1.2.0 + libmatroska v1.1.0 Video ID : 1 Format : AVC Format/Info : Advanced Video Codec Format profile : [email protected] Format settings, CABAC : Yes Format settings, ReFrames : 5 frames Muxing mode : Header stripping Codec ID : V_MPEG4/ISO/AVC Duration : 1h 40mn Bit rate mode : Variable Bit rate : 5 323 Kbps Maximum bit rate : 50.0 Mbps Width : 1 280 pixels Height : 544 pixels Display aspect ratio : 2.35:1 Frame rate : 24.000 fps Color space : YUV Chroma subsampling : 4:2:0 Bit depth : 8 bits Scan type : Progressive Bits/(Pixel*Frame) : 0.319 Stream size : 3.64 GiB (76%) Writing library : x264 core 115 r2008 4c552d8 Encoding settings : cabac=1 / ref=5 / deblock=1:-3:-2 / analyse=0x3:0x113 / me=hex / subme=8 / psy=1 / psy_rd=1.38:0.00 / mixed_ref=1 / me_range=16 / chroma_me=1 / trellis=2 / 8x8dct=1 / cqm=0 / deadzone=21,11 / fast_pskip=1 / chroma_qp_offset=-2 / threads=12 / sliced_threads=0 / nr=0 / decimate=0 / interlaced=0 / bluray_compat=0 / constrained_intra=0 / bframes=8 / b_pyramid=0 / b_adapt=2 / b_bias=0 / direct=1 / weightb=1 / open_gop=0 / weightp=1 / keyint=600 / keyint_min=1 / scenecut=40 / intra_refresh=0 / rc_lookahead=30 / rc=2pass / mbtree=1 / bitrate=5323 / ratetol=1.0 / qcomp=0.60 / qpmin=10 / qpmax=51 / qpstep=4 / cplxblur=20.0 / qblur=0.5 / vbv_maxrate=50000 / vbv_bufsize=50000 / nal_hrd=vbr / ip_ratio=1.40 / aq=1:1.00 Language : English Default : Yes Forced : No Audio ID : 2 Format : DTS Format/Info : Digital Theater Systems Muxing mode : Header stripping Codec ID : A_DTS Duration : 1h 40mn Bit rate mode : Constant Bit rate : 1 510 Kbps Channel(s) : 6 channels Channel positions : Front: L C R, Side: L R, LFE Sampling rate : 48.0 KHz Bit depth : 16 bits Compression mode : Lossy Stream size : 1.06 GiB (22%) Language : French Default : Yes Forced : No
    [​IMG]
    [​IMG]

    Fshare 1 link 4.8GB


    Phụ đề
    updating.......
     
    thanhtung90 cảm ơn bài này.
  2. Đang tải...


  3. nguyennam8877

    nguyennam8877 New Member

    Tham gia ngày:
    23/11/11
    Bài viết:
    56
    Đã được cảm ơn:
    5
    Ðề: [Hình sự | 1 link] Une Nuit 2012 BluRay 720p DTS x264-HDS - Một Đêm

    thanks bác nhé, quên ẩn link kìa :D
     
  4. Tuannv20

    Tuannv20 Well-Known Member

    Tham gia ngày:
    30/9/10
    Bài viết:
    1,744
    Đã được cảm ơn:
    126
    Ðề: [Hình sự | 1 link] Une Nuit 2012 BluRay 720p DTS x264-HDS - Một Đêm

    Thanks Bác. Phim này trên vnbits oánh dấu 18+ đó ! Bao giờ có sub hả Bác ơi ?
     
  5. chickensoup004

    chickensoup004 New Member

    Tham gia ngày:
    6/9/11
    Bài viết:
    22
    Đã được cảm ơn:
    0
    Ðề: [Hình sự | 1 link] Une Nuit 2012 BluRay 720p DTS x264-HDS - Một Đêm

    Phim này hay ko nhỉ? Chờ sub rồi kéo vậy
     
  6. buubink

    buubink Active Member

    Tham gia ngày:
    31/3/10
    Bài viết:
    513
    Đã được cảm ơn:
    60
    Nghề nghiệp:
    nhân viên
    Nơi ở:
    vietnam
    Ðề: [Hình sự | 1 link] Une Nuit 2012 BluRay 720p DTS x264-HDS - Một Đêm

    Phụ đề
    updating.......Đánh dấu đợi Sub
     
  7. boyvoz

    boyvoz Well-Known Member

    Tham gia ngày:
    27/7/10
    Bài viết:
    397
    Đã được cảm ơn:
    299
    Ðề: [Hình sự | 1 link] Une Nuit 2012 BluRay 720p DTS x264-HDS - Một Đêm

    Mình có ẩn link fshare bao giờ đâu. Share cho anh em down thoải mái :)
    đánh giá film này đây các bác nhé, cũng khá ổn mà chưa thấy có sub :(
    Une nuit (2012) - IMDb
     
  8. tu_ht

    tu_ht Member

    Tham gia ngày:
    21/1/10
    Bài viết:
    849
    Đã được cảm ơn:
    3
    Giới tính:
    Nam
    Nghề nghiệp:
    Công chức
    Nơi ở:
    Việt Nam. Sống và làm việc tại Hà Tĩnh
    Ðề: [Hình sự | 1 link] Une Nuit 2012 BluRay 720p DTS x264-HDS - Một Đêm

    Kéo về chờ sub. Cảm ơn bác nhiều!
     
  9. cfc2003

    cfc2003 Active Member

    Tham gia ngày:
    27/8/09
    Bài viết:
    468
    Đã được cảm ơn:
    116
    Giới tính:
    Nam
    Ðề: [Hình sự | 1 link] Une Nuit 2012 BluRay 720p DTS x264-HDS - Một Đêm

    thanks for share. wait sub v
     
  10. boyz21k

    boyz21k Member

    Tham gia ngày:
    22/9/09
    Bài viết:
    46
    Đã được cảm ơn:
    6
    Ðề: [Hình sự | 1 link] Une Nuit 2012 BluRay 720p DTS x264-HDS - Một Đêm

    không biết có bác nào có phụ đề chưa?
     
  11. Duc_91

    Duc_91 Member

    Tham gia ngày:
    24/11/09
    Bài viết:
    66
    Đã được cảm ơn:
    4
    Ðề: [Hình sự | 1 link] Une Nuit 2012 BluRay 720p DTS x264-HDS - Một Đêm

    chưa down nhưng tks bác vì k ẩn link \m/
     
  12. tu_ht

    tu_ht Member

    Tham gia ngày:
    21/1/10
    Bài viết:
    849
    Đã được cảm ơn:
    3
    Giới tính:
    Nam
    Nghề nghiệp:
    Công chức
    Nơi ở:
    Việt Nam. Sống và làm việc tại Hà Tĩnh
    Ðề: [Hình sự | 1 link] Une Nuit 2012 BluRay 720p DTS x264-HDS - Một Đêm

    Đến giờ vẫn chưa có sub nhỉ. Xem không biết tiếng cũng chả hiểu được mấy!
     
  13. tiamero

    tiamero Member

    Tham gia ngày:
    9/8/09
    Bài viết:
    317
    Đã được cảm ơn:
    6
    Ðề: [Hình sự | 1 link] Une Nuit 2012 BluRay 720p DTS x264-HDS - Một Đêm

    DV trên poster nhìn giống obama nhi!
     
  14. dotrongdoan

    dotrongdoan New Member

    Tham gia ngày:
    29/5/12
    Bài viết:
    5
    Đã được cảm ơn:
    0
    Ðề: [Hình sự | 1 link] Une Nuit 2012 BluRay 720p DTS x264-HDS - Một Đêm

    Nửa năm rồi mà không có sub kéo về mệt thật
     
  15. si_do

    si_do New Member

    Tham gia ngày:
    15/4/12
    Bài viết:
    881
    Đã được cảm ơn:
    31
    Ðề: [Hình sự | 1 link] Une Nuit 2012 BluRay 720p DTS x264-HDS - Một Đêm

    Chờ hoài mà vẫn chưa thấy sub đâu cả
     
  16. thachng

    thachng New Member

    Tham gia ngày:
    22/10/11
    Bài viết:
    50
    Đã được cảm ơn:
    2
    Ðề: [Hình sự | 1 link] Une Nuit 2012 BluRay 720p DTS x264-HDS - Một Đêm

    link die rôi bác ơi...
     
  17. LeKha7

    LeKha7 New Member

    Tham gia ngày:
    20/12/09
    Bài viết:
    3
    Đã được cảm ơn:
    0
    Ðề: [Hình sự | 1 link] Une Nuit 2012 BluRay 720p DTS x264-HDS - Một Đêm

    hóng sub nào .................
     

Chia sẻ trang này