[Hình Sự] Stillwater 2021 1080p Bluray DTS-HD MA 5.1 x264 - Tìm Lại Công Lý

Thảo luận trong 'Fshare.vn' bắt đầu bởi xemaydinh, 20/10/21.

  1. xemaydinh

    xemaydinh Tem

    Tham gia ngày:
    3/7/10
    Bài viết:
    32,901
    Đã được cảm ơn:
    147,562
    Stillwater 2021 1080p BluRay DD+5.1 x264-iFT

    Tìm Lại Công Lý

    [​IMG]



    Stillwater xoay quanh câu chuyện về Bill Baker là một người cha đơn thân, và anh cũng là nhân viên quản lý giàn Khoan dầu của Mỹ. Giờ đây, anh đã bắt đầu cuộc hành trình từ Oklahoma đến Marseille để gặp được co con gái của anh là Allison, giờ đây cô bé đang bị bắt nhốt trong tù với tội danh giết người. Bill Baker tại đây anh phải đối mặt với khó khăn về ngôn ngữ và khác biệt về nền văn hóa. Tuy nhiên, anh may mắn nhận được sự giúp đỡ của hai mẹ con và bắt đầu cuộc hành trình thanh minh cho con gái vô tội của mình. Tuy nhiên, anh may mắn nhận được sự giúp đỡ của hai mẹ con và bắt đầu cuộc hành trình thanh minh cho con gái vô tội của mình.

    RELEASE iNFO

    RELEASE NAME..: Stillwater.2021.1080p.BluRay.DD+5.1.x264-iFT
    RELEASE DATE..: UTC 2021-10-24 16:39:05
    RELEASE SIZE..: 20.1 GiB
    RUNTIME.......: 2 h 18 min
    VIDEO CODEC...: AVC, [email protected]
    FRAMERATE.....: 23.976 (24000/1001) FPS
    BITRATE.......: 19.6 Mb/s
    RESOLUTION....: 1920x1038p
    ASPECT RATIO..: 1.85:1
    AUDIO.........: English E-AC-3 6 Channels 1 024 kb/s
    SUBTITLES.....: English
    SUBTITLES.....: Spanish





    mhd https://www.hdvietnam.com/threads/h...bluray-dd5-1x264-xmd-tim-lai-cong-ly.1724939/

    720p https://www.hdvietnam.com/threads/h...720p-bluray-x264-dts-tim-lai-cong-ly.1724938/

    1080p https://hdvietnam.com/threads/hinh-...y-dts-hd-ma-5-1-x264-tim-lai-cong-ly.1723563/

    Thuyết minh

    Remux https://www.hdvietnam.com/threads/h...dts-hd-ma-5-1-triton-tim-lai-cong-ly.1725613/

    ISO
     
    Chỉnh sửa cuối: 25/10/21
    nhvu02, mkien80, HDtf15 and 2 others like this.
  2. xemaydinh

    xemaydinh Tem

    Tham gia ngày:
    3/7/10
    Bài viết:
    32,901
    Đã được cảm ơn:
    147,562
    Stillwater 2021 1080p BluRay x264 DTS-HD MA 5.1-MT

    Tìm Lại Công Lý

    [​IMG]



    Stillwater xoay quanh câu chuyện về Bill Baker là một người cha đơn thân, và anh cũng là nhân viên quản lý giàn Khoan dầu của Mỹ. Giờ đây, anh đã bắt đầu cuộc hành trình từ Oklahoma đến Marseille để gặp được co con gái của anh là Allison, giờ đây cô bé đang bị bắt nhốt trong tù với tội danh giết người. Bill Baker tại đây anh phải đối mặt với khó khăn về ngôn ngữ và khác biệt về nền văn hóa. Tuy nhiên, anh may mắn nhận được sự giúp đỡ của hai mẹ con và bắt đầu cuộc hành trình thanh minh cho con gái vô tội của mình. Tuy nhiên, anh may mắn nhận được sự giúp đỡ của hai mẹ con và bắt đầu cuộc hành trình thanh minh cho con gái vô tội của mình.

    Video
    ID : 1
    Format : AVC
    Format/Info : Advanced Video Codec
    Format profile : [email protected]
    Format settings : CABAC / 4 Ref Frames
    Format settings, CABAC : Yes
    Format settings, Reference frames : 4 frames
    Codec ID : V_MPEG4/ISO/AVC
    Duration : 2 h 18 min
    Bit rate : 25.4 Mb/s
    Width : 1 920 pixels
    Height : 1 040 pixels
    Display aspect ratio : 1.85:1
    Frame rate mode : Constant
    Frame rate : 23.976 (24000/1001) FPS
    Color space : YUV
    Chroma subsampling : 4:2:0
    Bit depth : 8 bits
    Scan type : Progressive
    Bits/(Pixel*Frame) : 0.530
    Stream size : 24.6 GiB (88%)
    Writing library : x264 core 157 r2938 2b00a84 [email protected]MTeam Mod
    Encoding settings : cabac=1 / ref=4 / deblock=1:-3:-3 / analyse=0x3:0x133 / me=umh / subme=10 / psy=1 / psy_rd=1.05:0.00 / mixed_ref=1 / me_range=32 / chroma_me=1 / trellis=2 / 8x8dct=1 / cqm=0 / deadzone=21,11 / fast_pskip=0 / chroma_qp_offset=-2 / threads=12 / lookahead_threads=2 / sliced_threads=0 / nr=0 / decimate=0 / interlaced=0 / bluray_compat=0 / constrained_intra=0 / bframes=8 / b_pyramid=2 / b_adapt=2 / b_bias=0 / direct=3 / weightb=1 / open_gop=0 / weightp=2 / keyint=250 / keyint_min=24 / scenecut=40 / intra_refresh=0 / rc_lookahead=250 / rc=crf / mbtree=0 / crf=16.8 / qcomp=0.60 / qpmin=0 / qpmax=69 / qpstep=4 / vbv_maxrate=62500 / vbv_bufsize=78125 / crf_max=0.0 / nal_hrd=none / filler=0 / ip_ratio=1.30 / pb_ratio=1.20 / aq=3:0.80
    Language : English
    Default : Yes
    Forced : No
    Color range : Limited
    Color primaries : BT.709
    Matrix coefficients : BT.709

    Audio
    ID : 2
    Format : DTS XLL
    Format/Info : Digital Theater Systems
    Commercial name : DTS-HD Master Audio
    Codec ID : A_DTS
    Duration : 2 h 18 min
    Bit rate mode : Variable
    Bit rate : 3 412 kb/s
    Channel(s) : 6 channels
    Channel layout : C L R Ls Rs LFE
    Sampling rate : 48.0 kHz
    Frame rate : 93.750 FPS (512 SPF)
    Bit depth : 24 bits
    Compression mode : Lossless
    Stream size : 3.31 GiB (12%)
    Language : English
    Default : Yes
    Forced : No

    Text #1
    ID : 3
    Format : UTF-8
    Codec ID : S_TEXT/UTF8
    Codec ID/Info : UTF-8 Plain Text
    Duration : 2 h 9 min
    Bit rate : 41 b/s
    Count of elements : 1245
    Stream size : 39.3 KiB (0%)
    Title : SRT
    Language : English
    Default : Yes
    Forced : No

    Text #2
    ID : 4
    Format : PGS
    Muxing mode : zlib
    Codec ID : S_HDMV/PGS
    Codec ID/Info : Picture based subtitle format used on BDs/HD-DVDs
    Duration : 2 h 11 min
    Bit rate : 32.4 kb/s
    Count of elements : 3120
    Stream size : 30.4 MiB (0%)
    Language : English
    Default : No
    Forced : No

    Menu
    00:00:00.000 : en:Chapter 01
    00:07:50.428 : en:Chapter 02
    00:12:56.943 : en:Chapter 03
    00:22:17.002 : en:Chapter 04
    00:32:23.859 : en:Chapter 05
    00:37:45.555 : en:Chapter 06
    00:44:02.390 : en:Chapter 07
    00:49:05.526 : en:Chapter 08
    00:57:51.051 : en:Chapter 09
    01:03:19.212 : en:Chapter 10
    01:08:21.723 : en:Chapter 11
    01:16:05.936 : en:Chapter 12
    01:25:03.974 : en:Chapter 13
    01:32:16.281 : en:Chapter 14
    01:39:18.911 : en:Chapter 15
    01:45:27.196 : en:Chapter 16
    01:51:43.697 : en:Chapter 17
    02:00:57.125 : en:Chapter 18
    02:05:31.399 : en:Chapter 19
    02:12:08.504 : en:Chapter 20



    mhd https://www.hdvietnam.com/threads/h...bluray-dd5-1x264-xmd-tim-lai-cong-ly.1724939/

    720p https://www.hdvietnam.com/threads/h...720p-bluray-x264-dts-tim-lai-cong-ly.1724938/

    1080p https://hdvietnam.com/threads/hinh-...y-dts-hd-ma-5-1-x264-tim-lai-cong-ly.1723563/

    Thuyết minh

    Remux

    ISO
     
  3. xemaydinh

    xemaydinh Tem

    Tham gia ngày:
    3/7/10
    Bài viết:
    32,901
    Đã được cảm ơn:
    147,562
    Stillwater 2021 1080p Bluray DTS-HD MA 5.1 x264-EVO

    Tìm Lại Công Lý

    [​IMG]



    Stillwater xoay quanh câu chuyện về Bill Baker là một người cha đơn thân, và anh cũng là nhân viên quản lý giàn Khoan dầu của Mỹ. Giờ đây, anh đã bắt đầu cuộc hành trình từ Oklahoma đến Marseille để gặp được co con gái của anh là Allison, giờ đây cô bé đang bị bắt nhốt trong tù với tội danh giết người. Bill Baker tại đây anh phải đối mặt với khó khăn về ngôn ngữ và khác biệt về nền văn hóa. Tuy nhiên, anh may mắn nhận được sự giúp đỡ của hai mẹ con và bắt đầu cuộc hành trình thanh minh cho con gái vô tội của mình. Tuy nhiên, anh may mắn nhận được sự giúp đỡ của hai mẹ con và bắt đầu cuộc hành trình thanh minh cho con gái vô tội của mình.

    General
    Filename.......: Stillwater.2021.1080p.Bluray.DTS-HD.MA.5.1.X264-EVO.mkv
    FileSize.......: 14.5 GiB
    Duration.......: 2 h 18 min


    Video
    Codec..........: AVC x264 [email protected]
    Resolution.....: 1920x1040
    Aspect ratio...: 1.85:1
    Bit rate.......:
    Frame rate.....: 23.976 fps


    Audio
    Language.......: English
    Channels.......: 6 CH
    Format.........: Dolby Digital
    Bit rate.......: 640 kb/s
    (Surround)


    Audio (#2)
    Language.......: English
    Channels.......: 6 CH
    Format.........: DTS-HD Master Audio
    Bit rate.......:
    (Surround)



    mhd https://www.hdvietnam.com/threads/h...bluray-dd5-1x264-xmd-tim-lai-cong-ly.1724939/

    720p https://www.hdvietnam.com/threads/h...720p-bluray-x264-dts-tim-lai-cong-ly.1724938/

    1080p https://hdvietnam.com/threads/hinh-...y-dts-hd-ma-5-1-x264-tim-lai-cong-ly.1723563/

    Thuyết minh

    Remux

    ISO
     
  4. sontay99

    sontay99 Active Member

    Tham gia ngày:
    17/5/11
    Bài viết:
    528
    Đã được cảm ơn:
    73
    Giới tính:
    Nam
    chờ sub viet...
     
    xemaydinh cảm ơn bài này.
  5. ndtgenius95

    ndtgenius95 New Member

    Tham gia ngày:
    13/1/21
    Bài viết:
    24
    Đã được cảm ơn:
    5
    Giới tính:
    Nam
    sub có chưa ạ?
     
  6. xemaydinh

    xemaydinh Tem

    Tham gia ngày:
    3/7/10
    Bài viết:
    32,901
    Đã được cảm ơn:
    147,562
    hiện giờ chưa có bác
     
  7. xemaydinh

    xemaydinh Tem

    Tham gia ngày:
    3/7/10
    Bài viết:
    32,901
    Đã được cảm ơn:
    147,562
  8. xemaydinh

    xemaydinh Tem

    Tham gia ngày:
    3/7/10
    Bài viết:
    32,901
    Đã được cảm ơn:
    147,562
  9. xemaydinh

    xemaydinh Tem

    Tham gia ngày:
    3/7/10
    Bài viết:
    32,901
    Đã được cảm ơn:
    147,562
  10. Nghia_PMT

    Nghia_PMT Well-Known Member

    Tham gia ngày:
    2/9/09
    Bài viết:
    7,543
    Đã được cảm ơn:
    522
    vẫn chưa ai nấu sub o_O
     
  11. binhto2009

    binhto2009 Active Member

    Tham gia ngày:
    17/12/16
    Bài viết:
    287
    Đã được cảm ơn:
    130
    Giới tính:
    Nam
    Nghia_PMT cảm ơn bài này.

Chia sẻ trang này