[Hình Sự] Stillwater 2021 m(720p-1080p) BluRay DD5.1x264-XMD- Tìm Lại Công Lý

Thảo luận trong 'mHD, SD' bắt đầu bởi xemaydinh, 23/10/21.

  1. xemaydinh

    xemaydinh Tem

    Tham gia ngày:
    3/7/10
    Bài viết:
    31,464
    Đã được cảm ơn:
    141,608
    Stillwater 2021 m(720p-1080p) BluRay DD5.1x264-XMD

    Tìm Lại Công Lý

    [​IMG]



    Stillwater xoay quanh câu chuyện về Bill Baker là một người cha đơn thân, và anh cũng là nhân viên quản lý giàn Khoan dầu của Mỹ. Giờ đây, anh đã bắt đầu cuộc hành trình từ Oklahoma đến Marseille để gặp được co con gái của anh là Allison, giờ đây cô bé đang bị bắt nhốt trong tù với tội danh giết người. Bill Baker tại đây anh phải đối mặt với khó khăn về ngôn ngữ và khác biệt về nền văn hóa. Tuy nhiên, anh may mắn nhận được sự giúp đỡ của hai mẹ con và bắt đầu cuộc hành trình thanh minh cho con gái vô tội của mình. Tuy nhiên, anh may mắn nhận được sự giúp đỡ của hai mẹ con và bắt đầu cuộc hành trình thanh minh cho con gái vô tội của mình.

    General

    Unique ID : 233686914563108217922023361897539828201 (0xAFCE766F5E72E63A99D0F22EDBEBF9E9)
    Complete name : C:\Stillwater.2021.m720p.BluRay.DD5.1x264-XMD.mkv
    Format : Matroska
    Format version : Version 4
    File size : 2.08 GiB
    Duration : 2 h 18 min
    Overall bit rate : 2 141 kb/s
    Encoded date : UTC 2021-10-23 09:15:30
    Writing application : mkvmerge v8.2.0 ('World of Adventure') 32bit
    Writing library : libebml v1.3.1 + libmatroska v1.4.2

    Video
    ID : 1
    Format : AVC
    Format/Info : Advanced Video Codec
    Format profile : [email protected]
    Format settings : CABAC / 4 Ref Frames
    Format settings, CABAC : Yes
    Format settings, Reference frames : 4 frames
    Codec ID : V_MPEG4/ISO/AVC
    Duration : 2 h 18 min
    Bit rate : 1 500 kb/s
    Width : 1 280 pixels
    Height : 694 pixels
    Display aspect ratio : 1.85:1
    Frame rate mode : Constant
    Frame rate : 23.976 (23976/1000) FPS
    Color space : YUV
    Chroma subsampling : 4:2:0
    Bit depth : 8 bits
    Scan type : Progressive
    Bits/(Pixel*Frame) : 0.070
    Stream size : 1.46 GiB (70%)
    Writing library : x264 core 152 r2851M ba24899
    Encoding settings : cabac=1 / ref=4 / deblock=1:-1:-1 / analyse=0x3:0x113 / me=umh / subme=9 / psy=1 / psy_rd=1.00:0.15 / mixed_ref=1 / me_range=24 / chroma_me=1 / trellis=2 / 8x8dct=1 / cqm=0 / deadzone=21,11 / fast_pskip=1 / chroma_qp_offset=-3 / threads=16 / lookahead_threads=4 / sliced_threads=0 / nr=0 / decimate=1 / interlaced=0 / bluray_compat=0 / constrained_intra=0 / bframes=3 / b_pyramid=2 / b_adapt=2 / b_bias=0 / direct=3 / weightb=1 / open_gop=0 / weightp=2 / keyint=250 / keyint_min=25 / scenecut=40 / intra_refresh=0 / rc_lookahead=50 / rc=2pass / mbtree=1 / bitrate=1500 / ratetol=1.0 / qcomp=0.60 / qpmin=0 / qpmax=69 / qpstep=4 / cplxblur=20.0 / qblur=0.5 / vbv_maxrate=31250 / vbv_bufsize=31250 / nal_hrd=none / filler=0 / ip_ratio=1.40 / aq=3:1.00
    Default : Yes
    Forced : No

    Audio
    ID : 2
    Format : AC-3
    Format/Info : Audio Coding 3
    Commercial name : Dolby Digital
    Codec ID : A_AC3
    Duration : 2 h 18 min
    Bit rate mode : Constant
    Bit rate : 640 kb/s
    Channel(s) : 6 channels
    Channel layout : L R C LFE Ls Rs
    Sampling rate : 48.0 kHz
    Frame rate : 31.250 FPS (1536 SPF)
    Compression mode : Lossy
    Delay relative to video : 78 ms
    Stream size : 636 MiB (30%)
    Title : Surround
    Language : English
    Service kind : Complete Main
    Default : Yes
    Forced : No

    .......................................................................................................................


    General
    Unique ID : 228989296485239580805579875099054389185 (0xAC45BBFB615B57F7AE361487242F37C1)
    Complete name : C:\Stillwater.2021.m1080p.BluRay.DD5.1x264-XMD.mkv
    Format : Matroska
    Format version : Version 4
    File size : 3.05 GiB
    Duration : 2 h 18 min
    Overall bit rate : 3 141 kb/s
    Encoded date : UTC 2021-10-23 09:03:10
    Writing application : mkvmerge v8.2.0 ('World of Adventure') 32bit
    Writing library : libebml v1.3.1 + libmatroska v1.4.2

    Video
    ID : 1
    Format : AVC
    Format/Info : Advanced Video Codec
    Format profile : [email protected]
    Format settings : CABAC / 4 Ref Frames
    Format settings, CABAC : Yes
    Format settings, Reference frames : 4 frames
    Codec ID : V_MPEG4/ISO/AVC
    Duration : 2 h 18 min
    Bit rate : 2 500 kb/s
    Width : 1 920 pixels
    Height : 1 040 pixels
    Display aspect ratio : 1.85:1
    Frame rate mode : Constant
    Frame rate : 23.976 (23976/1000) FPS
    Color space : YUV
    Chroma subsampling : 4:2:0
    Bit depth : 8 bits
    Scan type : Progressive
    Bits/(Pixel*Frame) : 0.052
    Stream size : 2.43 GiB (80%)
    Writing library : x264 core 152 r2851M ba24899
    Encoding settings : cabac=1 / ref=4 / deblock=1:-1:-1 / analyse=0x3:0x113 / me=umh / subme=9 / psy=1 / psy_rd=1.00:0.15 / mixed_ref=1 / me_range=24 / chroma_me=1 / trellis=2 / 8x8dct=1 / cqm=0 / deadzone=21,11 / fast_pskip=1 / chroma_qp_offset=-3 / threads=16 / lookahead_threads=4 / sliced_threads=0 / nr=0 / decimate=1 / interlaced=0 / bluray_compat=0 / constrained_intra=0 / bframes=3 / b_pyramid=2 / b_adapt=2 / b_bias=0 / direct=3 / weightb=1 / open_gop=0 / weightp=2 / keyint=250 / keyint_min=25 / scenecut=40 / intra_refresh=0 / rc_lookahead=50 / rc=2pass / mbtree=1 / bitrate=2500 / ratetol=1.0 / qcomp=0.60 / qpmin=0 / qpmax=69 / qpstep=4 / cplxblur=20.0 / qblur=0.5 / vbv_maxrate=31250 / vbv_bufsize=31250 / nal_hrd=none / filler=0 / ip_ratio=1.40 / aq=3:1.00
    Default : Yes
    Forced : No

    Audio
    ID : 2
    Format : AC-3
    Format/Info : Audio Coding 3
    Commercial name : Dolby Digital
    Codec ID : A_AC3
    Duration : 2 h 18 min
    Bit rate mode : Constant
    Bit rate : 640 kb/s
    Channel(s) : 6 channels
    Channel layout : L R C LFE Ls Rs
    Sampling rate : 48.0 kHz
    Frame rate : 31.250 FPS (1536 SPF)
    Compression mode : Lossy
    Delay relative to video : 78 ms
    Stream size : 636 MiB (20%)
    Title : Surround
    Language : English
    Service kind : Complete Main
    Default : Yes
    Forced : No






    mhd https://www.hdvietnam.com/threads/h...bluray-dd5-1x264-xmd-tim-lai-cong-ly.1724939/

    720p https://www.hdvietnam.com/threads/h...720p-bluray-x264-dts-tim-lai-cong-ly.1724938/

    1080p https://hdvietnam.com/threads/hinh-...y-dts-hd-ma-5-1-x264-tim-lai-cong-ly.1723563/

    Thuyết minh

    Remux

    ISO
     
    spiderman_1x and revoltsoul like this.
  2. Đang tải...


  3. trangbungbu

    trangbungbu Active Member

    Tham gia ngày:
    8/4/10
    Bài viết:
    176
    Đã được cảm ơn:
    48
    Giới tính:
    Nam
    chua co sub Viet ha chu thot ?
     
    xemaydinh cảm ơn bài này.

Chia sẻ trang này