[Fshare] [Hoạt Hình | 1link ] Despicable Me 2 2013 1080p BluRay DTS x264-TayTO & VAV | Kẻ Cắp Mặt Trăng 2

Thảo luận trong 'Phim có audio Việt' bắt đầu bởi xemaydinh, 31/10/13.

  1. xemaydinh

    xemaydinh Tem

    Tham gia ngày:
    3/7/10
    Bài viết:
    31,582
    Đã được cảm ơn:
    141,813
    Despicable Me 2 2013 1080p BluRay DTS x264-TayTO & VAV


    [​IMG]

    [​IMG]





    Mã:
    General
    Unique ID                                : 171706932528483731868301578327291267674 (0x812D8D63A260910088A5B51493170A5A)
    Format                                   : Matroska
    Format version                           : Version 2
    File size                                : 10.3 GiB
    Duration                                 : 1h 37mn
    Overall bit rate                         : 15.1 Mbps
    Movie name                               : Despicable.Me.2.2013.ViE.1080p.BluRay.DTS.x264-TayTO.VAV
    Encoded date                             : UTC 2013-10-30 06:45:01
    Writing application                      : mkvmerge v5.8.0 ('No Sleep / Pillow') built on Sep  2 2012 15:37:04
    Writing library                          : libebml v1.2.3 + libmatroska v1.3.0
    Video
    ID                                       : 1
    Format                                   : AVC
    Format/Info                              : Advanced Video Codec
    Format profile                           : [email protected]
    Format settings, CABAC                   : Yes
    Format settings, ReFrames                : 4 frames
    Muxing mode                              : Header stripping
    Codec ID                                 : V_MPEG4/ISO/AVC
    Duration                                 : 1h 37mn
    Bit rate                                 : 11.7 Mbps
    Width                                    : 1 920 pixels
    Height                                   : 1 038 pixels
    Display aspect ratio                     : 1.85:1
    Frame rate mode                          : Constant
    Frame rate                               : 23.976 fps
    Color space                              : YUV
    Chroma subsampling                       : 4:2:0
    Bit depth                                : 8 bits
    Scan type                                : Progressive
    Bits/(Pixel*Frame)                       : 0.246
    Stream size                              : 8.03 GiB (78%)
    Title                                    : Despicable Me 2 (2013) | VAV Studio
    Writing library                          : x264 core 138 r2358 9e941d1
    Encoding settings                        : cabac=1 / ref=4 / deblock=1:-3:-3 / analyse=0x3:0x133 / me=tesa / subme=10 / psy=1 / psy_rd=0.60:0.00 / mixed_ref=1 / me_range=16 / chroma_me=1 / trellis=2 / 8x8dct=1 / cqm=0 / deadzone=21,11 / fast_pskip=0 / chroma_qp_offset=-2 / threads=12 / lookahead_threads=2 / sliced_threads=0 / nr=0 / decimate=1 / interlaced=0 / bluray_compat=0 / constrained_intra=0 / bframes=7 / b_pyramid=2 / b_adapt=2 / b_bias=0 / direct=3 / weightb=1 / open_gop=0 / weightp=2 / keyint=250 / keyint_min=23 / scenecut=40 / intra_refresh=0 / rc=crf / mbtree=0 / crf=16.4 / qcomp=0.75 / qpmin=0 / qpmax=69 / qpstep=4 / ip_ratio=1.40 / pb_ratio=1.30 / aq=1:1.05
    Language                                 : English
    Default                                  : Yes
    Forced                                   : No
    Matrix coefficients                      : BT.709
    Audio #1
    ID                                       : 2
    Format                                   : DTS
    Format/Info                              : Digital Theater Systems
    Mode                                     : 16
    Format settings, Endianness              : Big
    Muxing mode                              : Header stripping
    Codec ID                                 : A_DTS
    Duration                                 : 1h 37mn
    Bit rate mode                            : Constant
    Bit rate                                 : 1 510 Kbps
    Channel count                            : 6 channels
    Channel positions                        : Front: L C R, Side: L R, LFE
    Sampling rate                            : 48.0 KHz
    Bit depth                                : 24 bits
    Compression mode                         : Lossy
    Stream size                              : 1.03 GiB (10%)
    Title                                    : ViE DTS 5.1CH 1510 Kbps
    Language                                 : Vietnamese
    Default                                  : Yes
    Forced                                   : No
    Audio #2
    ID                                       : 5
    Format                                   : DTS
    Format/Info                              : Digital Theater Systems
    Mode                                     : 16
    Format settings, Endianness              : Big
    Muxing mode                              : Header stripping
    Codec ID                                 : A_DTS
    Duration                                 : 1h 37mn
    Bit rate mode                            : Constant
    Bit rate                                 : 1 509 Kbps
    Channel count                            : 6 channels
    Channel positions                        : Front: L C R, Side: L R, LFE
    Sampling rate                            : 48.0 KHz
    Bit depth                                : 24 bits
    Compression mode                         : Lossy
    Stream size                              : 1.03 GiB (10%)
    Title                                    : Eng DTS 5.1CH 1510 Kbps
    Language                                 : English
    Default                                  : No
    Forced                                   : No
    Text #1
    ID                                       : 3
    Format                                   : UTF-8
    Codec ID                                 : S_TEXT/UTF8
    Codec ID/Info                            : UTF-8 Plain Text
    Title                                    : VAV Studio Info
    Language                                 : French
    Default                                  : Yes
    Forced                                   : No
    Text #2
    ID                                       : 4
    Format                                   : UTF-8
    Codec ID                                 : S_TEXT/UTF8
    Codec ID/Info                            : UTF-8 Plain Text
    Language                                 : English
    Default                                  : No
    Forced                                   : No
    Text #3
    ID                                       : 6
    Format                                   : UTF-8
    Codec ID                                 : S_TEXT/UTF8
    Codec ID/Info                            : UTF-8 Plain Text
    Language                                 : Vietnamese
    Default                                  : No
    Forced                                   : No
    Menu
    00:00:00.000                             : en:Chapter 1
    00:03:22.994                             : en:Chapter 2
    00:08:04.734                             : en:Chapter 3
    00:15:50.867                             : en:Chapter 4
    00:18:28.232                             : en:Chapter 5
    00:24:36.892                             : en:Chapter 6
    00:30:50.724                             : en:Chapter 7
    00:34:40.704                             : en:Chapter 8
    00:40:48.279                             : en:Chapter 9
    00:46:26.200                             : en:Chapter 10
    00:51:23.122                             : en:Chapter 11
    00:56:27.426                             : en:Chapter 12
    01:00:00.472                             : en:Chapter 13
    01:03:27.053                             : en:Chapter 14
    01:08:44.078                             : en:Chapter 15
    01:14:01.979                             : en:Chapter 16
    01:18:08.058                             : en:Chapter 17
    01:22:33.907                             : en:Chapter 18
    01:27:09.099                             : en:Chapter 19
    01:30:33.720                             : en:Chapter 20
    


    [​IMG]

    [​IMG] [​IMG]
    [​IMG] [​IMG]



    Link tải phim
    Despicable Me 2 2013 1080p BluRay DTS x264-TayTO & VAV
    LINK FSHARE
    Nhấn nút Cảm ơn (dưới chân bài) để thấy link!

    OTHER LINK

    LINK TORRENTS

    Phim đã được Mux đầy đủ Audio Eng + Việt | Sub: Eng + Việt trong file MKV


    [ VAV STUDIO ] TỔNG HỢP PHIM HD THUYẾT MINH TIẾNG VIỆT



    [​IMG] [​IMG] [​IMG]





    Bluray VAV http://www.hdvietnam.com/diendan/26...hinh-1link-despicable-me-2-a.html#post6239657

    1080p VAV http://www.hdvietnam.com/diendan/26...716279-hoat-hinh-1link-despicable-me-2-a.html

    3D 1080p VAV http://www.hdvietnam.com/diendan/26...-hoat-hinh-despicable-me-2-a.html#post6232497

    720p VAV http://www.hdvietnam.com/diendan/26...716267-hoat-hinh-1link-despicable-me-2-a.html
     
    Chỉnh sửa cuối: 2/11/13
  2. Đang tải...


  3. xonewlife

    xonewlife New Member

    Tham gia ngày:
    14/6/13
    Bài viết:
    26
    Đã được cảm ơn:
    0
    thank! cám ơn chủ top
     
  4. rosa239

    rosa239 Member

    Tham gia ngày:
    18/7/12
    Bài viết:
    256
    Đã được cảm ơn:
    11
    Nơi ở:
    Hai Phong
    Ðề: [Hoạt Hình | 1link ] Despicable Me 2 2013 1080p BluRay DTS x264-TayTO & VAV | Kẻ Cắp Mặt Trăng 2

    Bản ngon đây rồi. Thay mặt các cháu cảm ơn chủ thớt và VAV nhé
     
  5. chantinh7650

    chantinh7650 New Member

    Tham gia ngày:
    2/10/10
    Bài viết:
    15
    Đã được cảm ơn:
    1
    Ðề: [Hoạt Hình | 1link ] Despicable Me 2 2013 1080p BluRay DTS x264-TayTO & VAV | Kẻ Cắp Mặt Trăng 2

    cám ơn chủ thớt
     
  6. cuongtbgd

    cuongtbgd Active Member

    Tham gia ngày:
    13/3/14
    Bài viết:
    472
    Đã được cảm ơn:
    126
    Giới tính:
    Nam
    Ðề: [Hoạt Hình | 1link ] Despicable Me 2 2013 1080p BluRay DTS x264-TayTO & VAV | Kẻ Cắp Mặt Trăng 2

    Hấp dẫn thật, mình đang có mHD giờ thấy được 1080P, thanks
     

Chia sẻ trang này