[Hoạt Hình|Collection|1080p} Trọn bộ 22+ phim của PIXAR (1995-2020)

Thảo luận trong 'Phim hoạt hình' bắt đầu bởi Ng-Bin, 5/5/20.

  1. Ng-Bin

    Ng-Bin Well-Known Member

    Tham gia ngày:
    20/4/20
    Bài viết:
    119
    Đã được cảm ơn:
    2,730
    Giới tính:
    Nam
    Cập nhật Soul (2020) - Cuộc sống nhiệm màu
    1080p mux sub việt
    4K sub dời
     
    cdagha, Behe and minhtrung1410 like this.
  2. binhhc

    binhhc Moderator

    Tham gia ngày:
    16/6/10
    Bài viết:
    7,345
    Đã được cảm ơn:
    1,728
    Giới tính:
    Nam
    Nghề nghiệp:
    KS điện
    Nơi ở:
    Thái Nguyên - Việt Nam
    List phim hay và chất lượng. Thank
     
    Ng-Bin cảm ơn bài này.
  3. cdagha

    cdagha Well-Known Member

    Tham gia ngày:
    3/4/14
    Bài viết:
    488
    Đã được cảm ơn:
    300
    Giới tính:
    Nam
    Soul chưa có Audio Việt à bác?
     
  4. Ng-Bin

    Ng-Bin Well-Known Member

    Tham gia ngày:
    20/4/20
    Bài viết:
    119
    Đã được cảm ơn:
    2,730
    Giới tính:
    Nam
    Chưa có bạn ơi, chắc đợi Bluray ra mới có audio vie
     
    cdagha cảm ơn bài này.
  5. Ng-Bin

    Ng-Bin Well-Known Member

    Tham gia ngày:
    20/4/20
    Bài viết:
    119
    Đã được cảm ơn:
    2,730
    Giới tính:
    Nam
    Cập nhật Soul (2020) - Cuộc sống nhiệm màu
    Bản Bluray Thuyết minh
     
    trungkho cảm ơn bài này.
  6. trungkho

    trungkho Member

    Tham gia ngày:
    14/9/08
    Bài viết:
    93
    Đã được cảm ơn:
    5
    "Soul" mới thấy bác cho lên ngày 28/3, bản đó là lồng tiếng hay thuyết minh vậy chủ thớt ơi? Cám ơn chủ thớt nhiều nhé!
     
  7. Ng-Bin

    Ng-Bin Well-Known Member

    Tham gia ngày:
    20/4/20
    Bài viết:
    119
    Đã được cảm ơn:
    2,730
    Giới tính:
    Nam
    là bản thuyết minh của mrbenhien bạn ạ
     
  8. Ng-Bin

    Ng-Bin Well-Known Member

    Tham gia ngày:
    20/4/20
    Bài viết:
    119
    Đã được cảm ơn:
    2,730
    Giới tính:
    Nam
    Cập nhật Soul (2020) - Cuộc sống nhiệm màu bản gồm cả Thuyết minh + Lồng tiếng + Sub Việt.

    Mã:
    General
    Unique ID                   : 130855558504833807421570601347101591079 (0x6271DD255D7CFAA2B4AC21591D2D8627)
    Complete name               : Soul.2020.ViE.1080p.BluRay.Remux.AVC DTS-HD.MA 7.1.Ng-Bin.mkv
    Format                      : Matroska
    Format version              : Version 4
    File size                   : 24.5 GiB
    Duration                    : 1 h 40 min
    Overall bit rate mode       : Variable
    Overall bit rate            : 34.8 Mb/s
    Movie name                  : Soul (2020) - Cuộc sống nhiệm màu (Ng-Bin)
    Encoded date                : UTC 2021-03-31 09:40:18
    Writing application         : mkvmerge v51.0.0 ('I Wish') 64-bit
    Writing library             : libebml v1.4.0 + libmatroska v1.6.2
    Cover                       : Yes
    Attachments                 : cover.jpg
    
    Video
    ID                          : 1
    Format                      : AVC
    Format/Info                 : Advanced Video Codec
    Format profile              : [email protected]
    Format settings             : CABAC / 4 Ref Frames
    Format settings, CABAC      : Yes
    Format settings, Reference  : 4 frames
    Codec ID                    : V_MPEG4/ISO/AVC
    Duration                    : 1 h 40 min
    Bit rate mode               : Variable
    Bit rate                    : 24.0 Mb/s
    Maximum bit rate            : 30.8 Mb/s
    Width                       : 1 920 pixels
    Height                      : 1 080 pixels
    Display aspect ratio        : 16:9
    Frame rate mode             : Constant
    Frame rate                  : 23.976 (24000/1001) FPS
    Color space                 : YUV
    Chroma subsampling          : 4:2:0
    Bit depth                   : 8 bits
    Scan type                   : Progressive
    Bits/(Pixel*Frame)          : 0.483
    Stream size                 : 16.9 GiB (69%)
    Title                       : 1080p-Remux-AVC H264
    Default                     : No
    Forced                      : No
    
    Audio #1
    ID                          : 2
    Format                      : DTS XLL
    Format/Info                 : Digital Theater Systems
    Commercial name             : DTS-HD Master Audio
    Codec ID                    : A_DTS
    Duration                    : 1 h 40 min
    Bit rate mode               : Variable
    Bit rate                    : 4 316 kb/s
    Channel(s)                  : 8 channels
    Channel layout              : C L R LFE Lb Rb Lss Rss
    Sampling rate               : 48.0 kHz
    Frame rate                  : 93.750 FPS (512 SPF)
    Bit depth                   : 24 bits
    Compression mode            : Lossless
    Delay relative to video     : 87 ms
    Stream size                 : 3.03 GiB (12%)
    Title                       : English DTS-HD MA
    Language                    : English
    Default                     : No
    Forced                      : No
    
    Audio #2
    ID                          : 3
    Format                      : E-AC-3
    Format/Info                 : Enhanced AC-3
    Commercial name             : Dolby Digital Plus
    Codec ID                    : A_EAC3
    Duration                    : 1 h 40 min
    Bit rate mode               : Constant
    Bit rate                    : 1 023 kb/s
    Channel(s)                  : 6 channels
    Channel layout              : L R C LFE Ls Rs
    Sampling rate               : 48.0 kHz
    Frame rate                  : 93.750 FPS (512 SPF)
    Compression mode            : Lossy
    Delay relative to video     : 3 ms
    Stream size                 : 736 MiB (3%)
    Title                       : Vietnamese AC-3 DUB
    Language                    : Vietnamese
    Service kind                : Complete Main
    Default                     : No
    Forced                      : No
    
    Audio #3
    ID                          : 4
    Format                      : DTS XLL
    Format/Info                 : Digital Theater Systems
    Commercial name             : DTS-HD Master Audio
    Codec ID                    : A_DTS
    Duration                    : 1 h 40 min
    Bit rate mode               : Variable
    Bit rate                    : 4 485 kb/s
    Channel(s)                  : 8 channels
    Channel layout              : C L R LFE Lb Rb Lss Rss
    Sampling rate               : 48.0 kHz
    Frame rate                  : 93.750 FPS (512 SPF)
    Bit depth                   : 24 bits
    Compression mode            : Lossless
    Delay relative to video     : 87 ms
    Stream size                 : 3.15 GiB (13%)
    Title                       : Vietnamese DTS-HD MA TM
    Language                    : Vietnamese
    Default                     : Yes
    Forced                      : No
    
    Audio #4
    ID                          : 5
    Format                      : AC-3
    Format/Info                 : Audio Coding 3
    Commercial name             : Dolby Digital
    Codec ID                    : A_AC3
    Duration                    : 1 h 40 min
    Bit rate mode               : Constant
    Bit rate                    : 640 kb/s
    Channel(s)                  : 6 channels
    Channel layout              : L R C LFE Ls Rs
    Sampling rate               : 48.0 kHz
    Frame rate                  : 31.250 FPS (1536 SPF)
    Compression mode            : Lossy
    Delay relative to video     : 87 ms
    Stream size                 : 460 MiB (2%)
    Title                       : Vietnamese AC-3 TM
    Language                    : Vietnamese
    Service kind                : Complete Main
    Default                     : No
    Forced                      : No
    
    Audio #5
    ID                          : 6
    Format                      : AC-3
    Format/Info                 : Audio Coding 3
    Commercial name             : Dolby Digital
    Codec ID                    : A_AC3
    Duration                    : 1 h 40 min
    Bit rate mode               : Constant
    Bit rate                    : 320 kb/s
    Channel(s)                  : 2 channels
    Channel layout              : L R
    Sampling rate               : 48.0 kHz
    Frame rate                  : 31.250 FPS (1536 SPF)
    Compression mode            : Lossy
    Delay relative to video     : 87 ms
    Stream size                 : 230 MiB (1%)
    Title                       : Commentary Director Pete Docter/Producer Dana Murray
    Language                    : English
    Service kind                : Complete Main
    Default                     : No
    Forced                      : No
    
    Text #1
    ID                          : 7
    Format                      : UTF-8
    Codec ID                    : S_TEXT/UTF8
    Codec ID/Info               : UTF-8 Plain Text
    Duration                    : 1 h 39 min
    Bit rate                    : 89 b/s
    Count of elements           : 1553
    Stream size                 : 65.3 KiB (0%)
    Title                       : Vietnamese
    Language                    : Vietnamese
    Default                     : Yes
    Forced                      : No
    
    Text #2
    ID                          : 8
    Format                      : PGS
    Muxing mode                 : zlib
    Codec ID                    : S_HDMV/PGS
    Codec ID/Info               : Picture based subtitle format used on BDs/HD-DVDs
    Duration                    : 1 h 40 min
    Bit rate                    : 51.8 kb/s
    Count of elements           : 3716
    Stream size                 : 37.3 MiB (0%)
    Title                       : English
    Language                    : English
    Default                     : No
    Forced                      : No
    
    Menu
    00:00:00.000                : :Chapter 01
    00:07:58.916                : :Chapter 02
    00:15:58.916                : :Chapter 03
    00:23:58.916                : :Chapter 04
    00:31:58.916                : :Chapter 05
    00:39:58.916                : :Chapter 06
    00:47:58.916                : :Chapter 07
    00:55:58.916                : :Chapter 08
    01:03:58.916                : :Chapter 09
    01:11:58.916                : :Chapter 10
    01:19:58.916                : :Chapter 11
    01:27:58.916                : :Chapter 12
    01:35:58.916                : :Chapter 13
    
    

     
    binh508 cảm ơn bài này.
  9. chienninja92

    chienninja92 New Member

    Tham gia ngày:
    30/12/19
    Bài viết:
    1
    Đã được cảm ơn:
    0
    Mình down film đầu tiên: Toy Story 1995 mà ko thấy thuyết minh.
     
  10. Ng-Bin

    Ng-Bin Well-Known Member

    Tham gia ngày:
    20/4/20
    Bài viết:
    119
    Đã được cảm ơn:
    2,730
    Giới tính:
    Nam
    phim nào cũng có 2 ngôn ngữ trở lên nhé bạn. Bạn chưa biết đổi ngôn ngữ rồi. Lên google tìm hiểu nhé
     
  11. tangngong

    tangngong Well-Known Member

    Tham gia ngày:
    7/3/14
    Bài viết:
    482
    Đã được cảm ơn:
    424
    Phim Đi tìm Nemo là bản lồng tiếng hay thuyết minh vậy ạ??
     
  12. TruongGiang020681

    TruongGiang020681 New Member

    Tham gia ngày:
    2/9/21
    Bài viết:
    3
    Đã được cảm ơn:
    1
    Giới tính:
    Nam
    Ý là mình down về có lồng tiếng sẵn luôn hả bạn.
    VD: down khủng long con tốt bụng (9,5gb)


     
  13. Ng-Bin

    Ng-Bin Well-Known Member

    Tham gia ngày:
    20/4/20
    Bài viết:
    119
    Đã được cảm ơn:
    2,730
    Giới tính:
    Nam
    Cập nhật Dug Days - Season 01 (2021) dành cho những Fan của Up (2009)
    Series 'Dug Days' là phim ngoại truyện nhưng cũng vừa là hậu truyện, khi phim sẽ hé lộ ngắn cuộc sống của cụ Carl, nhóc Russell và đặc biệt là cún Dug sau 'UP'.
    Theo đó, với 5 tập phim, phim sẽ kể và tập trung chủ yếu vào cún Dug, về những trải nghiệm của ẻm khi được hòa nhập với cuộc sống vùng ngoại ô cùng ông Carl. Cún Dug sẽ được khám phá những điều lạ mới mà cậu chưa từng được biết qua, như là chăm cún con, xem pháo hoa và cả SÓC nữa.
    [​IMG]
     
    Duc ku cảm ơn bài này.
  14. duykhanh1810

    duykhanh1810 Active Member

    Tham gia ngày:
    27/3/13
    Bài viết:
    210
    Đã được cảm ơn:
    30
    Nghề nghiệp:
    Manager
    Nơi ở:
    Lucern - Switzerland
    cảm ơn bác rất nhiều :x tiện quá
     
  15. Duc ku

    Duc ku New Member

    Tham gia ngày:
    9/12/10
    Bài viết:
    5
    Đã được cảm ơn:
    0
    Giới tính:
    Nam
    Nơi ở:
    Hải Phòng
    Bộ sưu tập tuyệt vời quá chủ thớt *Like*
    Cảm ơn chủ thớt nhiều nhé
    Hy vọng folder được cập nhật đầy đủ thêm các film ngắn đặc sắc của Pixar
     

Chia sẻ trang này