[Hồi ký] The.Little.House.2014.720p.BluRay.x264-WiKi ~ Tổ ấm

Thảo luận trong 'Fshare.vn' bắt đầu bởi hatieupro7, 29/9/18.

  1. hatieupro7

    hatieupro7 Well-Known Member

    Tham gia ngày:
    26/9/10
    Bài viết:
    364
    Đã được cảm ơn:
    2,900
    Giới tính:
    Nam
    Nghề nghiệp:
    OSIN
    Nơi ở:
    Haiphong city
    THE LITTLE HOUSE (2014)
    TỔ ẤM
    IMDB: https://www.imdb.com/title/tt2530392/


    [​IMG]

    TRAILER


    SCREENSHOTS
    https://i.imgur.com/bg1Od7h.jpg
    [​IMG]


    NỘI DUNG

    Mã:
    Complete name               : G:\Movies\The.Little.House.2014.720p.BluRay.x264-WiKi.mkv
    Format                      : Matroska
    Format version              : Version 4 / Version 2
    File size                   : 6.55 GiB
    Duration                    : 2 h 16 min
    Overall bit rate            : 6 881 kb/s
    Movie name                  : Jubowo @ WiKi
    Encoded date                : UTC 2014-08-09 13:24:44
    Writing application         : mkvmerge v6.8.0 ('Theme for Great Cities') 64bit built on Mar  2 2014 21:34:26
    Writing library             : libebml v1.3.0 + libmatroska v1.4.1
    Video
    ID                          : 1
    Format                      : AVC
    Format/Info                 : Advanced Video Codec
    Format profile              : [email protected]
    Format settings, CABAC      : Yes
    Format settings, ReFrames   : 9 frames
    Codec ID                    : V_MPEG4/ISO/AVC
    Duration                    : 2 h 16 min
    Bit rate                    : 6 244 kb/s
    Width                       : 1 280 pixels
    Height                      : 692 pixels
    Display aspect ratio        : 1.85:1
    Frame rate mode             : Constant
    Frame rate                  : 23.976 (24000/1001) FPS
    Color space                 : YUV
    Chroma subsampling          : 4:2:0
    Bit depth                   : 8 bits
    Scan type                   : Progressive
    Bits/(Pixel*Frame)          : 0.294
    Stream size                 : 5.81 GiB (89%)
    Writing library             : x264 core 129 r2245+704+36 8e61944 tMod+MixAQ [[email protected]:2:0 X86_64]
    Encoding settings           : cabac=1 / ref=9 / deblock=1:-3:-3 / analyse=0x3:0x133 / me=umh / subme=11 / psy=1 / fade_compensate=0.00 / psy_rd=1.05:0.10 / mixed_ref=1 / me_range=32 / chroma_me=1 / trellis=2 / 8x8dct=1 / cqm=0 / deadzone=21,11 / fast_pskip=0 / chroma_qp_offset=-3 / threads=18 / lookahead_threads=3 / sliced_threads=0 / nr=0 / decimate=0 / interlaced=0 / bluray_compat=0 / constrained_intra=0 / fgo=0 / bframes=10 / b_pyramid=2 / b_adapt=2 / b_bias=0 / direct=3 / weightb=1 / open_gop=0 / weightp=2 / keyint=250 / keyint_min=23 / scenecut=40 / intra_refresh=0 / rc_lookahead=80 / rc=2pass / mbtree=1 / bitrate=6244 / ratetol=1.0 / qcomp=0.70 / qpmin=0 / qpmax=69 / qpstep=4 / cplxblur=20.0 / qblur=0.5 / ip_ratio=1.40 / aq=3 / aq-strength=0.85 / aq-sensitivity=10.00 / aq-ifactor=1.00 / aq-pfactor=1.00 / aq-bfactor=1.00 / aq2=0
    Language                    : Japanese
    Default                     : Yes
    Forced                      : No
    Audio
    ID                          : 2
    Format                      : AC-3
    Format/Info                 : Audio Coding 3
    Mode extension              : CM (complete main)
    Format settings, Endianness : Big
    Codec ID                    : A_AC3
    Duration                    : 2 h 16 min
    Bit rate mode               : Constant
    Bit rate                    : 640 kb/s
    Channel(s)                  : 6 channels
    Channel positions           : Front: L C R, Side: L R, LFE
    Sampling rate               : 48.0 kHz
    Frame rate                  : 31.250 FPS (1536 spf)
    Bit depth                   : 16 bits
    Compression mode            : Lossy
    Stream size                 : 624 MiB (9%)
    Language                    : Japanese
    Default                     : Yes
    Forced                      : No


    LINK DOWNLOAD:​

    Nhấn nút Cảm ơn (dưới chân bài) để thấy link!



    Chúc các bạn xem phim vui vẻ!
    #CJV.Team
    #Cinema_of_Japan
    #hatieupro
     
    Chỉnh sửa cuối: 4/3/19
  2. Đang tải...


  3. dreamer83

    dreamer83 Active Member

    Tham gia ngày:
    27/5/10
    Bài viết:
    118
    Đã được cảm ơn:
    69
    Cho mình xin lại phim này.
     
  4. hatieupro7

    hatieupro7 Well-Known Member

    Tham gia ngày:
    26/9/10
    Bài viết:
    364
    Đã được cảm ơn:
    2,900
    Giới tính:
    Nam
    Nghề nghiệp:
    OSIN
    Nơi ở:
    Haiphong city
    Bạn down lại giùm mình nhé, lâu không ai down file bị xoá :(
     
    dreamer83 cảm ơn bài này.

Chia sẻ trang này