[ISO & MK3D [ViE]] Godzilla vs Kong 2021 3D BluRay 1080p AVC DTS-HD MA 7.1

Thảo luận trong '3D' bắt đầu bởi Anh YAM, 14/6/21.

  1. Anh YAM

    Anh YAM Uploader

    Tham gia ngày:
    5/1/19
    Bài viết:
    8,820
    Đã được cảm ơn:
    161,937
    Giới tính:
    Nam
    Godzilla vs Kong 2021 3D BluRay 1080p AVC DTS-HD MA 7.1.iso
    (thanks Bro.H)

    Godzilla vs Kong 2021 3D BluRay 1080p REMUX AVC DTS-HD MA 7.1 - AYA.mk3d
    (thuyết minh - thanks Mr.ATN)


    Godzilla đại chiến Kong


    [​IMG]




    【 Info 】
    ⭐ IMDb Rating: 6.4/10 from 134738 users
    ⭐ IMDb Link: https://www.imdb.com/title/tt5034838/

    Sau các sự kiện diễn ra ở “Godzilla: King of the Monsters”, trong thời đại mà các Titans đòi lại quyền làm chủ hành tinh, cuộc đấu tranh sinh tồn giữa loài người với chúng đã dẫn đến một cuộc chiến không thể tránh khỏi giữa Godzilla và Kong. Trong khi Monarch cố gắng làm sáng tỏ nguồn gốc của Titans, thì vẫn còn đó một âm mưu đen tối với mục đích là tiêu diệt tất cả các Titan và toàn bộ các sinh vật trên Trái Đất ...



    【 Trailer 】




    【 Media Info 】

    PHP:
    Disc TitleGodzilla vsKong
    Disc Size
    45,940,552,071 bytes
    Protection
    AACS
    Playlist
    00101.MPLS
    Size
    42,983,067,648 bytes
    Length
    1:53:08.782
    Total Bitrate
    50.65 Mbps
    Video
    MPEG-4 AVC Video 25896 kbps Left Eye 1080p 23.976 fps 16:High Profile 4.1
    Video
    MPEG-4 MVC Video 11194 kbps Right Eye
    Audio
    English DTS-HD Master Audio 7.1 48 kHz /  3098 kbps 16-bit (DTS Core5.1 48 kHz /  1509 kbps 16-bit)
    AudioEnglish Dolby Digital Audio 5.1 48 kHz /   640 kbps DN -27dB
    Audio
    French DTS-HD Master Audio 7.1 48 kHz /  3102 kbps 16-bit (DTS Core5.1 48 kHz /  1509 kbps 16-bit)
    AudioSpanish Dolby Digital Audio 5.1 48 kHz /   640 kbps DN -27dB
    Audio
    Hindi Dolby Digital Audio 5.1 48 kHz /   640 kbps DN -27dB
    Audio
    Polish Dolby Digital Audio 5.1 48 kHz /   640 kbps DN -27dB
    Audio
    Tamil Dolby Digital Audio 5.1 48 kHz /   640 kbps DN -27dB
    Audio
    Telugu Dolby Digital Audio 5.1 48 kHz /   640 kbps DN -27dB
    Subtitle
    English 29.252 kbps
    Subtitle
    French 18.213 kbps
    Subtitle
    Spanish 20.857 kbps
    Subtitle
    Dutch 18.760 kbps
    Subtitle
    Polish 18.934 kbps
    Subtitle
    French 1.322 kbps
    Subtitle
    Spanish 1.628 kbps
    Subtitle
    Hindi 1.270 kbps
    Subtitle
    Tamil 1.918 kbps
    Subtitle
    Telugu 1.470 kbps
    PHP:
    General
    Filename
    ........: Godzilla vs Kong 2021 3D BluRay 1080p AVC DTS-HD MA 7.1 AYA.mk3d
    Container
    .......: Matroska
    Duration
    ........: 1 h 53 min
    Size
    ............: 34.5 GiB
    Chapter
    .........: Yes

    Video
    Codec
    ...........: AVC Stereo High L4.1 High L4.1 8 bits
    Type
    ............: Progressive
    Resolution
    ......: 1920x1080
    Aspect ratio
    ....: 16:9
    Bit rate
    ........: 37.1 Mb/s
    Frame rate
    ......: 23.976 (24000/1001FPS

    Audio 
    #1
    Format..........: DTS-HD Master Audio
    Channels
    ........: 8 channels
    Bit rate
    ........: 3 098 kb/s
    Language
    ........: English

    Audio 
    #2
    Format..........: DTS-HD High Resolution Audio
    Channels
    ........: 8 channels
    Bit rate
    ........: 3 456 kb/s
    Language
    ........: Vietnamese

    Subtitles
    Language
    ........: English
    Language
    ........: Vietnamese
    General
    Unique ID : 331586654316039924289081295017636766024 (0xF975444486FEF1440DB6A6C830A3A148)
    Complete name : C:\REMUX\Godzilla vs Kong 2021 3D BluRay 1080p AVC DTS-HD MA 7.1 - AYA.mk3d
    Format : Matroska
    Format version : Version 4
    File size : 34.5 GiB
    Duration : 1 h 53 min
    Overall bit rate mode : Variable
    Overall bit rate : 43.7 Mb/s
    Movie name : Godzilla vs. Kong (2021)
    Encoded date : UTC 2021-06-14 13:37:32
    Writing application : mkvmerge v58.0.0 ('Supper's Ready') 64-bit
    Writing library : libebml v1.4.2 + libmatroska v1.6.4
    Attachments : Poster.jpg
    Video
    ID : 1
    ID in the original source medium : 4113 (0x1011)
    Format : AVC
    Format/Info : Advanced Video Codec
    Format profile : Stereo [email protected] / [email protected]
    MultiView_Count : 2
    MultiView_Layout : Both Eyes laced in one block (left eye first)
    Format settings : CABAC / 2 Ref Frames
    Format settings, CABAC : Yes
    Format settings, Reference frames : 2 frames
    Codec ID : V_MPEG4/ISO/AVC
    Duration : 1 h 53 min
    Bit rate mode : Variable
    Bit rate : 37.1 Mb/s
    Width : 1 920 pixels
    Height : 1 080 pixels
    Display aspect ratio : 16:9
    Frame rate mode : Constant
    Frame rate : 23.976 (24000/1001) FPS
    Color space : YUV
    Chroma subsampling : 4:2:0
    Bit depth : 8 bits
    Scan type : Progressive
    Bits/(Pixel*Frame) : 0.746
    Stream size : 29.3 GiB (85%)
    Title : AYA
    Language : English
    Default : Yes
    Forced : No
    Original source medium : Blu-ray
    Audio #1
    ID : 2
    ID in the original source medium : 4352 (0x1100)
    Format : DTS XLL
    Format/Info : Digital Theater Systems
    Commercial name : DTS-HD Master Audio
    Codec ID : A_DTS
    Duration : 1 h 53 min
    Bit rate mode : Variable
    Bit rate : 3 098 kb/s
    Channel(s) : 8 channels
    Channel layout : C L R LFE Lb Rb Lss Rss
    Sampling rate : 48.0 kHz
    Frame rate : 93.750 FPS (512 SPF)
    Bit depth : 16 bits
    Compression mode : Lossless
    Stream size : 2.45 GiB (7%)
    Title : DTS-HD Master Audio / 7.1 / 48 kHz / 3098 kbps / 16-bit
    Language : English
    Default : Yes
    Forced : No
    Original source medium : Blu-ray
    Audio #2
    ID : 3
    Format : DTS ES XBR
    Format/Info : Digital Theater Systems
    Commercial name : DTS-HD High Resolution Audio
    Codec ID : A_DTS
    Duration : 1 h 53 min
    Bit rate mode : Constant
    Bit rate : 3 456 kb/s
    Channel(s) : 8 channels
    Channel layout : C L R Ls Rs LFE Lb Rb
    Sampling rate : 48.0 kHz
    Frame rate : 93.750 FPS (512 SPF)
    Bit depth : 24 bits
    Compression mode : Lossy
    Stream size : 2.73 GiB (8%)
    Title : DTS-HD High Resolution Audio / 7.1 / 48 kHz / 3456 kbps / 24-bit
    Language : Vietnamese
    Default : Yes
    Forced : No
    Text #1
    ID : 4
    ID in the original source medium : 4608 (0x1200)
    Format : PGS
    Codec ID : S_HDMV/PGS
    Codec ID/Info : Picture based subtitle format used on BDs/HD-DVDs
    Duration : 1 h 45 min
    Bit rate : 31.3 kb/s
    Count of elements : 2700
    Stream size : 23.7 MiB (0%)
    Title : English
    Language : English
    Default : Yes
    Forced : No
    3d-plane : 1
    Original source medium : Blu-ray
    Text #2
    ID : 5
    Format : UTF-8
    Codec ID : S_TEXT/UTF8
    Codec ID/Info : UTF-8 Plain Text
    Duration : 1 h 45 min
    Bit rate : 49 b/s
    Count of elements : 864
    Stream size : 38.4 KiB (0%)
    Title : Vietnamese
    Language : Vietnamese
    Default : Yes
    Forced : No
    Menu
    00:00:00.000 : Chapter 01
    00:09:51.591 : Chapter 02
    00:20:07.247 : Chapter 03
    00:29:02.365 : Chapter 04
    00:38:39.734 : Chapter 05
    00:49:15.994 : Chapter 06
    00:57:16.766 : Chapter 07
    01:09:07.977 : Chapter 08
    01:18:33.875 : Chapter 09
    01:30:06.109 : Chapter 10
    01:41:58.654 : Chapter 11



    [​IMG]
    [​IMG]
    [​IMG]
    [​IMG]
    [​IMG]
    [​IMG]
    [​IMG]
    [​IMG]




    [​IMG]



    Nhấn nút Cảm ơn (dưới chân bài) để thấy link!



     
  2. congtuthanhnam2

    congtuthanhnam2 Active Member

    Tham gia ngày:
    3/7/11
    Bài viết:
    399
    Đã được cảm ơn:
    65
    Giới tính:
    Nam
    Nghề nghiệp:
    Kỹ sư
    Nơi ở:
    Hà Nội
    Bác chủ thớt ơi, cả 2 file đều là 3d cả à. File chấm mk3d có xem đc trên Q5 pro hoặc Dune ko bác.
    Cám ơn bác
     
    kimnguyenkim cảm ơn bài này.

Chia sẻ trang này