[MULTI] Joshy (2016) 1080p WEB-DL DD5.1 H264-FGT

Thảo luận trong 'mHD, SD' bắt đầu bởi otik00, 14/8/16.

  1. otik00

    otik00 Well-Known Member

    Tham gia ngày:
    27/12/12
    Bài viết:
    20,787
    Đã được cảm ơn:
    222
    Joshy (2016) 1080p WEB-DL DD5.1 H264-FGT

    [​IMG]

    Mã:
    After his engagement suddenly ends, Joshy and a few his friends decide to take advantage of what was supposed to be his bachelor party in Ojai, California. In their attempt to help Joshy deal with the recent turn of events, the guys turn the getaway into a raucous weekend filled with drugs, booze, debauchery, and hot tubs. Written and directed by Jeff Baena and featuring an ensemble cast of hilarious comedic talents-including Thomas Middleditch (HBO's "Silicon Valley"), Adam Pally (TV's "Happy Endings"), Alex Ross Perry (director of Queen of Earth), Nick Kroll (TV's "The League"), Brett Gelman (TV's "Married") and Jenny Slate (Obvious Child) -Jeff Baena's sophomore feature is a wickedly amusing portrayal of male bonding and emotional incompetence. 
    
    
    	

    http://www.imdb.com/title/tt4661798/

    [mediainfo] Video ID : 1 Format : AVC Format/Info : Advanced Video Codec Format profile : [email protected] Format settings, CABAC : Yes Format settings, ReFrames : 5 frames Codec ID : V_MPEG4/ISO/AVC Duration : 1h 33mn Bit rate : 4 462 Kbps Width : 1 908 pixels Height : 790 pixels Display aspect ratio : 2.40:1 Frame rate mode : Constant Frame rate : 23.976 (24000/1001) fps Color space : YUV Chroma subsampling : 4:2:0 Bit depth : 8 bits Scan type : Progressive Bits/(Pixel*Frame) : 0.123 Stream size : 2.90 GiB (90%) Title : Joshy.2016.1080p.WEB-DL.DD5.1.H264-FGT Language : English Default : Yes Forced : No Color range : Limited Color primaries : BT.709 Transfer characteristics : BT.709 Matrix coefficients : BT.709 Audio ID : 2 Format : AC-3 Format/Info : Audio Coding 3 Mode extension : CM (complete main) Format settings, Endianness : Big Codec ID : A_AC3 Duration : 1h 33mn Bit rate mode : Constant Bit rate : 384 Kbps Channel(s) : 6 channels Channel positions : Front: L C R, Side: L R, LFE Sampling rate : 48.0 KHz Frame rate : 31.250 fps (1536 spf) Compression mode : Lossy Stream size : 256 MiB (8%) Title : Joshy.2016.1080p.WEB-DL.DD5.1.H264-FGT Language : English Default : Yes Forced : No Text ID : 3 Format : UTF-8 Codec ID : S_TEXT/UTF8 Codec ID/Info : UTF-8 Plain Text Language : English Default : Yes Forced : No Menu 00:00:00.000 : en:1 00:04:07.000 : en:2 00:14:34.000 : en:3 00:24:54.000 : en:4 00:33:45.000 : en:5 00:45:13.000 : en:6 00:57:27.000 : en:7 01:07:01.000 : en:8 01:19:58.000 : en:9 01:29:05.000 : en:10 [/mediainfo]
    Mã:
    https://www.bigfile.to/file/wzMxRmPWdGDD/Joshy.1-FGT.part1.rar
    https://www.bigfile.to/file/GcjC5qSG8des/Joshy.1-FGT.part2.rar
    https://www.bigfile.to/file/kweZ3BkuA8Bw/Joshy.1-FGT.part3.rar
    https://www.bigfile.to/file/z8fhhpCU6C74/Joshy.1-FGT.part4.rar
    http://rapidgator.net/file/b69b587658f25d06c4a2412f792e6754/Joshy.1-FGT.part1.rar.html
    http://rapidgator.net/file/a731d7be13b1a024ee19c5fb60428f79/Joshy.1-FGT.part2.rar.html
    http://rapidgator.net/file/f19e1696e9c2f32f777997b1530f06a7/Joshy.1-FGT.part3.rar.html
    http://rapidgator.net/file/21159d06835f09a3a826d0321c99de62/Joshy.1-FGT.part4.rar.html
    http://uploaded.net/file/u4szndk5/Joshy.1-FGT.part1.rar
    http://uploaded.net/file/m5lf1sg3/Joshy.1-FGT.part2.rar
    http://uploaded.net/file/yloroxxx/Joshy.1-FGT.part3.rar
    http://uploaded.net/file/95vilily/Joshy.1-FGT.part4.rar
    
     
  2. Đang tải...

    Chủ đề tương tự
    1. CaptainTsubasa
      Trả lời:
      0
      Đọc:
      106
    2. LoriYagami
      Trả lời:
      0
      Đọc:
      166
    3. CaptainTsubasa
      Trả lời:
      0
      Đọc:
      124
    4. coldawes
      Trả lời:
      0
      Đọc:
      149
    5. LoriYagami
      Trả lời:
      0
      Đọc:
      99

Chia sẻ trang này