[MULTI] Joshy (2016) WEB-DL XviD AC3-FGT

Thảo luận trong 'mHD, SD' bắt đầu bởi otik00, 14/8/16.

  1. otik00

    otik00 Well-Known Member

    Tham gia ngày:
    27/12/12
    Bài viết:
    20,787
    Đã được cảm ơn:
    222
    Joshy (2016) WEB-DL XviD AC3-FGT

    [​IMG]

    Mã:
    After his engagement suddenly ends, Joshy and a few his friends decide to take advantage of what was supposed to be his bachelor party in Ojai, California. In their attempt to help Joshy deal with the recent turn of events, the guys turn the getaway into a raucous weekend filled with drugs, booze, debauchery, and hot tubs. Written and directed by Jeff Baena and featuring an ensemble cast of hilarious comedic talents-including Thomas Middleditch (HBO's "Silicon Valley"), Adam Pally (TV's "Happy Endings"), Alex Ross Perry (director of Queen of Earth), Nick Kroll (TV's "The League"), Brett Gelman (TV's "Married") and Jenny Slate (Obvious Child) -Jeff Baena's sophomore feature is a wickedly amusing portrayal of male bonding and emotional incompetence. 
    
    
    	

    http://www.imdb.com/title/tt4661798/

    Video ID : 0 Format : MPEG-4 Visual Format profile : [email protected] Format settings, BVOP : No Format settings, QPel : No Format settings, GMC : No warppoints Format settings, Matrix : Default (H.263) Codec ID : XVID Codec ID/Hint : XviD Duration : 1h 33mn Bit rate : 1 455 Kbps Width : 720 pixels Height : 304 pixels Display aspect ratio : 2.40:1 Frame rate : 23.976 fps Color space : YUV Chroma subsampling : 4:2:0 Bit depth : 8 bits Scan type : Progressive Compression mode : Lossy Bits/(Pixel*Frame) : 0.277 Stream size : 970 MiB (79%) Writing library : Lavc57.24.102 Audio ID : 1 Format : AC-3 Format/Info : Audio Coding 3 Mode extension : CM (complete main) Format settings, Endianness : Big Codec ID : 2000 Duration : 1h 33mn Bit rate mode : Constant Bit rate : 384 Kbps Channel(s) : 6 channels Channel positions : Front: L C R, Side: L R, LFE Sampling rate : 48.0 KHz Frame rate : 31.250 fps (1536 spf) Compression mode : Lossy Stream size : 256 MiB (21%) Alignment : Aligned on interleaves Interleave, duration : 42 ms (1.00 video frame) Interleave, preload duration : 512 ms
    Mã:
    https://www.bigfile.to/file/KahHv7D46kwr/Joshy.sd-FGT.part1.rar
    https://www.bigfile.to/file/GTwr2n6NvWZN/Joshy.sd-FGT.part2.rar
    http://rapidgator.net/file/84ab63cf748e4b9e16900750db50c3a9/Joshy.sd-FGT.part1.rar.html
    http://rapidgator.net/file/c71ed9f97968871bcd69fc761cb80107/Joshy.sd-FGT.part2.rar.html
    http://uploaded.net/file/owpy0m7y/Joshy.sd-FGT.part1.rar
    http://uploaded.net/file/hy038594/Joshy.sd-FGT.part2.rar
     
  2. Đang tải...

    Chủ đề tương tự
    1. CaptainTsubasa
      Trả lời:
      0
      Đọc:
      106
    2. LoriYagami
      Trả lời:
      0
      Đọc:
      166
    3. CaptainTsubasa
      Trả lời:
      0
      Đọc:
      124
    4. coldawes
      Trả lời:
      0
      Đọc:
      149
    5. LoriYagami
      Trả lời:
      0
      Đọc:
      99

Chia sẻ trang này