[Kinh Dị] Dont Breathe 2 2021 m(720p-1080p) BluRay DD5 1x264-XMD -Sát Nhân Trong Bóng Tối 2

Thảo luận trong 'mHD, SD' bắt đầu bởi xemaydinh, 21/10/21.

  1. xemaydinh

    xemaydinh Tem

    Tham gia ngày:
    3/7/10
    Bài viết:
    31,411
    Đã được cảm ơn:
    141,530
    Dont Breathe 2 2021 m(720p-1080p) BluRay DD5 1x264-XMD

    Sát Nhân Trong Bóng Tối 2
    [​IMG]




    Sát Nhân Trong Bóng Tối 2 sẽ mở rộng câu chuyện về Mr. Blind Man khi anh đã ẩn náu vài năm trong một căn nhà gỗ biệt lập và đã nhận và nuôi dạy một cô gái trẻ mồ côi từ một vụ cháy nhà kinh hoàng. Cuộc sống êm ấm bên nhau của họ tan vỡ khi một nhóm tội phạm bắt cóc cô gái, buộc anh phải rời nơi trú ẩn an toàn để cứu cô.


    General
    Unique ID : 212489981752669828196626917377094564194 (0x9FDC14F5B1631A06A2FDBD79204DB962)
    Complete name : C:\Dont.Breathe.2.2021.m720p.BluRay.DD5.1x264-XMD.mkv
    Format : Matroska
    Format version : Version 4
    File size : 1.47 GiB
    Duration : 1 h 38 min
    Overall bit rate : 2 141 kb/s
    Encoded date : UTC 2021-10-21 06:35:34
    Writing application : mkvmerge v8.2.0 ('World of Adventure') 32bit
    Writing library : libebml v1.3.1 + libmatroska v1.4.2

    Video
    ID : 1
    Format : AVC
    Format/Info : Advanced Video Codec
    Format profile : [email protected]
    Format settings : CABAC / 4 Ref Frames
    Format settings, CABAC : Yes
    Format settings, Reference frames : 4 frames
    Codec ID : V_MPEG4/ISO/AVC
    Duration : 1 h 38 min
    Bit rate : 1 500 kb/s
    Width : 1 280 pixels
    Height : 536 pixels
    Display aspect ratio : 2.40:1
    Frame rate mode : Constant
    Frame rate : 23.976 (23976/1000) FPS
    Color space : YUV
    Chroma subsampling : 4:2:0
    Bit depth : 8 bits
    Scan type : Progressive
    Bits/(Pixel*Frame) : 0.091
    Stream size : 1.03 GiB (70%)
    Writing library : x264 core 152 r2851M ba24899
    Encoding settings : cabac=1 / ref=4 / deblock=1:-1:-1 / analyse=0x3:0x113 / me=umh / subme=9 / psy=1 / psy_rd=1.00:0.15 / mixed_ref=1 / me_range=24 / chroma_me=1 / trellis=2 / 8x8dct=1 / cqm=0 / deadzone=21,11 / fast_pskip=1 / chroma_qp_offset=-3 / threads=16 / lookahead_threads=4 / sliced_threads=0 / nr=0 / decimate=1 / interlaced=0 / bluray_compat=0 / constrained_intra=0 / bframes=3 / b_pyramid=2 / b_adapt=2 / b_bias=0 / direct=3 / weightb=1 / open_gop=0 / weightp=2 / keyint=250 / keyint_min=25 / scenecut=40 / intra_refresh=0 / rc_lookahead=50 / rc=2pass / mbtree=1 / bitrate=1500 / ratetol=1.0 / qcomp=0.60 / qpmin=0 / qpmax=69 / qpstep=4 / cplxblur=20.0 / qblur=0.5 / vbv_maxrate=31250 / vbv_bufsize=31250 / nal_hrd=none / filler=0 / ip_ratio=1.40 / aq=3:1.00
    Default : Yes
    Forced : No

    Audio
    ID : 2
    Format : AC-3
    Format/Info : Audio Coding 3
    Commercial name : Dolby Digital
    Codec ID : A_AC3
    Duration : 1 h 38 min
    Bit rate mode : Constant
    Bit rate : 640 kb/s
    Channel(s) : 6 channels
    Channel layout : L R C LFE Ls Rs
    Sampling rate : 48.0 kHz
    Frame rate : 31.250 FPS (1536 SPF)
    Compression mode : Lossy
    Delay relative to video : 78 ms
    Stream size : 450 MiB (30%)
    Title : Surround
    Language : English
    Service kind : Complete Main
    Default : Yes
    Forced : No


    ...................................................................................................................

    UniqueID/String : 173472151581283195349565426770580190147 (0x828185686EC9807DBB337FA1F921B3C3)
    CompleteName : C:\Dont.Breathe.2.2021.m1080p.BluRay.DD5.1x264-XMD.mkv
    Format/String : Matroska
    Format_Version : Version 4
    FileSize/String : 2.16 GiB
    Duration/String : 1 h 38 min
    OverallBitRate/String : 3 140 kb/s
    Encoded_Date : UTC 2021-10-21 06:37:09
    Encoded_Application/String : mkvmerge v8.2.0 ('World of Adventure') 32bit
    Encoded_Library/String : libebml v1.3.1 + libmatroska v1.4.2

    Video
    ID/String : 1
    Format/String : AVC
    Format/Info : Advanced Video Codec
    Format_Profile : [email protected]
    Format_Settings : CABAC / 4 Ref Frames
    Format_Settings_CABAC/String : Yes
    Format_Settings_RefFrames/String : 4 frames
    CodecID : V_MPEG4/ISO/AVC
    Duration/String : 1 h 38 min
    BitRate/String : 2 500 kb/s
    Width/String : 1 920 pixels
    Height/String : 804 pixels
    DisplayAspectRatio/String : 2.40:1
    FrameRate_Mode/String : Constant
    FrameRate/String : 23.976 (23976/1000) FPS
    ColorSpace : YUV
    ChromaSubsampling/String : 4:2:0
    BitDepth/String : 8 bits
    ScanType/String : Progressive
    Bits-(Pixel*Frame) : 0.068
    StreamSize/String : 1.71 GiB (80%)
    Encoded_Library/String : x264 core 152 r2851M ba24899
    Encoded_Library_Settings : cabac=1 / ref=4 / deblock=1:-1:-1 / analyse=0x3:0x113 / me=umh / subme=9 / psy=1 / psy_rd=1.00:0.15 / mixed_ref=1 / me_range=24 / chroma_me=1 / trellis=2 / 8x8dct=1 / cqm=0 / deadzone=21,11 / fast_pskip=1 / chroma_qp_offset=-3 / threads=16 / lookahead_threads=4 / sliced_threads=0 / nr=0 / decimate=1 / interlaced=0 / bluray_compat=0 / constrained_intra=0 / bframes=3 / b_pyramid=2 / b_adapt=2 / b_bias=0 / direct=3 / weightb=1 / open_gop=0 / weightp=2 / keyint=250 / keyint_min=25 / scenecut=40 / intra_refresh=0 / rc_lookahead=50 / rc=2pass / mbtree=1 / bitrate=2500 / ratetol=1.0 / qcomp=0.60 / qpmin=0 / qpmax=69 / qpstep=4 / cplxblur=20.0 / qblur=0.5 / vbv_maxrate=31250 / vbv_bufsize=31250 / nal_hrd=none / filler=0 / ip_ratio=1.40 / aq=3:1.00
    Default/String : Yes
    Forced/String : No

    Audio
    ID/String : 2
    Format/String : AC-3
    Format/Info : Audio Coding 3
    Format_Commercial_IfAny : Dolby Digital
    CodecID : A_AC3
    Duration/String : 1 h 38 min
    BitRate_Mode/String : Constant
    BitRate/String : 640 kb/s
    Channel(s)/String : 6 channels
    ChannelLayout : L R C LFE Ls Rs
    SamplingRate/String : 48.0 kHz
    FrameRate/String : 31.250 FPS (1536 SPF)
    Compression_Mode/String : Lossy
    Video_Delay/String : 78 ms
    StreamSize/String : 450 MiB (20%)
    Title : Surround
    Language/String : English
    ServiceKind/String : Complete Main
    Default/String : Yes
    Forced/String : No







    mhd https://www.hdvietnam.com/threads/k...-1x264-xmd-sat-nhan-trong-bong-toi-2.1724014/

    720p https://www.hdvietnam.com/threads/k...y-x264-dts-sat-nhan-trong-bong-toi-2.1724011/

    1080p https://www.hdvietnam.com/threads/k...a-5-1-x264-sat-nhan-trong-bong-toi-2.1723561/

    4K-HDR https://www.hdvietnam.com/threads/k...-10bit-chd-sat-nhan-trong-bong-toi-2.1724885/

    Thuyết minh https://www.hdvietnam.com/threads/k...264-dts-mt-sat-nhan-trong-bong-toi-2.1724423/

    Remux https://www.hdvietnam.com/threads/k...truehd-7-1-sat-nhan-trong-bong-toi-2.1725876/

    Remux 4K https://www.hdvietnam.com/threads/r...-dts-hd-ma-sat-nhan-trong-bong-toi-2.1725739/

    ISO
     
    Chỉnh sửa cuối: 26/10/21
    dungke, dolarmax and jakevoett like this.
  2. Đang tải...


Chia sẻ trang này