[Kinh Dị ] Old 2021 1080p Blu-ray REMUX AVC TrueHD Atmos 7 1-ARTEMiS - Lão Hóa

Thảo luận trong 'Bluray Remux' bắt đầu bởi xemaydinh, 14/10/21.

  1. xemaydinh

    xemaydinh Tem

    Tham gia ngày:
    3/7/10
    Bài viết:
    32,797
    Đã được cảm ơn:
    146,442
    Old 2021 1080p Blu-ray REMUX AVC TrueHD Atmos 7 1-ARTEMiS - Lão Hóa
    [​IMG]




    "Old" kể về 1 một nhóm gồm những gia đình khác nhau đã chọn bãi biển mới lạ để làm nơi cắm trại vui chơi. Họ không ngờ ở bãi biển này là nơi khiến cho cơ thể lão hóa cực kỳ nhanh. Điển hình như một đứa trẻ 6 tuổi chỉ mới một ngày đã trở thành thiếu niên trưởng thành. Ngay cả những diễn tiến bệnh trong người cùng như bào thai cũng được phát triển đến tốc độ chóng mặt khiến toàn bộ các thanh viên trong gia đình rơi vào tình cảnh nguy hiểm, khi lão hóa càng nhanh sự sống của họ ngày càng được rút ngắn chỉ còn vài ngày.


    Unique ID : 195158907904701463393750186381026850200 (0x92D23D0C06BEDF0957E639456D54F598)
    Complete name : Old.2021.1080p.Blu-ray.REMUX.AVC.TrueHD.Atmos.7.1-ARTEMiS.mkv

    Format : Matroska

    Format version : Version 4
    File size : 25.5 GiB
    Duration : 1 h 48 min
    Overall bit rate mode : Variable
    Overall bit rate : 33.7 Mb/s
    Movie name : Old.2021.1080p.Blu-ray.REMUX.AVC.TrueHD.Atmos.7.1-ARTEMiS
    Encoded date : UTC 2021-10-14 03:36:22
    Writing application : mkvmerge v55.0.0 ('Waiting For Space') 64-bit
    Writing library : libebml v1.4.2 + libmatroska v1.6.4
    Cover : Yes
    Attachments : cover.jpg

    Video
    ID : 1
    ID in the original source medium : 4113 (0x1011)
    Format : AVC
    Format/Info : Advanced Video Codec
    Format profile : [email protected]
    Format settings : CABAC / 4 Ref Frames
    Format settings, CABAC : Yes
    Format settings, Reference frames : 4 frames
    Codec ID : V_MPEG4/ISO/AVC
    Duration : 1 h 48 min
    Bit rate mode : Variable
    Bit rate : 29.7 Mb/s
    Maximum bit rate : 33.0 Mb/s
    Width : 1 920 pixels
    Height : 1 080 pixels
    Display aspect ratio : 16:9
    Frame rate mode : Constant
    Frame rate : 23.976 (24000/1001) FPS
    Color space : YUV
    Chroma subsampling : 4:2:0
    Bit depth : 8 bits
    Scan type : Progressive
    Bits/(Pixel*Frame) : 0.596
    Stream size : 22.5 GiB (88%)
    Title : MPEG-4 AVC Video / 29797 kbps / 1080p / 23.976 fps / 16:9 / High Profile 4.1
    Default : Yes
    Forced : No
    Original source medium : Blu-ray

    Audio #1
    ID : 2
    ID in the original source medium : 4352 (0x1100)
    Format : MLP FBA 16-ch
    Format/Info : Meridian Lossless Packing FBA with 16-channel presentation
    Commercial name : Dolby TrueHD with Dolby Atmos
    Codec ID : A_TRUEHD
    Duration : 1 h 48 min
    Bit rate mode : Variable
    Bit rate : 3 411 kb/s
    Maximum bit rate : 4 908 kb/s
    Channel(s) : 8 channels
    Channel layout : L R C LFE Ls Rs Lb Rb
    Sampling rate : 48.0 kHz
    Frame rate : 1 200.000 FPS (40 SPF)
    Compression mode : Lossless
    Stream size : 2.58 GiB (10%)
    Title : Dolby TrueHD/Atmos Audio / 7.1 / 48 kHz / 3411 kbps / 16-bit
    Language : English
    Default : Yes
    Forced : No
    Original source medium : Blu-ray
    Number of dynamic objects : 11
    Bed channel count : 1 channel
    Bed channel configuration : LFE

    Audio #2
    ID : 3
    ID in the original source medium : 4352 (0x1100)
    Format : AC-3
    Format/Info : Audio Coding 3
    Commercial name : Dolby Digital
    Codec ID : A_AC3
    Duration : 1 h 48 min
    Bit rate mode : Constant
    Bit rate : 448 kb/s
    Channel(s) : 6 channels
    Channel layout : L R C LFE Ls Rs
    Sampling rate : 48.0 kHz
    Frame rate : 31.250 FPS (1536 SPF)
    Compression mode : Lossy
    Stream size : 348 MiB (1%)
    Title : Compatibility Track / AC3 Embedded: 5.1 / 48 kHz / 448 kbps
    Language : English
    Service kind : Complete Main
    Default : No
    Forced : No
    Original source medium : Blu-ray

    Text #1
    ID : 4
    ID in the original source medium : 4608 (0x1200)
    Format : PGS
    Codec ID : S_HDMV/PGS
    Codec ID/Info : Picture based subtitle format used on BDs/HD-DVDs
    Duration : 1 h 43 min
    Bit rate : 40.7 kb/s
    Count of elements : 2830
    Stream size : 30.1 MiB (0%)
    Language : English
    Default : Yes
    Forced : No
    Original source medium : Blu-ray

    Text #2
    ID : 5
    ID in the original source medium : 4609 (0x1201)
    Format : PGS
    Codec ID : S_HDMV/PGS
    Codec ID/Info : Picture based subtitle format used on BDs/HD-DVDs
    Duration : 1 h 47 min
    Bit rate : 34.0 kb/s
    Count of elements : 2599
    Stream size : 26.2 MiB (0%)
    Language : Spanish
    Default : No
    Forced : No
    Original source medium : Blu-ray

    Text #3
    ID : 6
    ID in the original source medium : 4610 (0x1202)
    Format : PGS
    Codec ID : S_HDMV/PGS
    Codec ID/Info : Picture based subtitle format used on BDs/HD-DVDs
    Duration : 1 h 47 min
    Bit rate : 35.1 kb/s
    Count of elements : 2486
    Stream size : 27.0 MiB (0%)
    Language : French
    Default : No
    Forced : No
    Original source medium : Blu-ray

    Menu
    00:00:00.000 : en:Chapter 01
    00:05:50.099 : en:Chapter 02
    00:13:46.617 : en:Chapter 03
    00:18:35.447 : en:Chapter 04
    00:23:05.675 : en:Chapter 05
    00:28:33.044 : en:Chapter 06
    00:32:43.419 : en:Chapter 07
    00:38:01.654 : en:Chapter 08
    00:43:25.894 : en:Chapter 09
    00:47:54.371 : en:Chapter 10
    00:53:05.807 : en:Chapter 11
    01:01:32.939 : en:Chapter 12
    01:05:11.365 : en:Chapter 13
    01:08:52.336 : en:Chapter 14
    01:12:44.068 : en:Chapter 15
    01:18:59.568 : en:Chapter 16
    01:23:29.796 : en:Chapter 17
    01:29:13.222 : en:Chapter 18
    01:34:26.619 : en:Chapter 19
    01:41:18.280 : en:Chapter 20




    mhd https://www.hdvietnam.com/threads/kinh-di-old-2021-m1080p-bluray-dd5-1x264-xmd-lao-hoa.1720458/

    720p https://www.hdvietnam.com/threads/kinh-di-old-2021-720p-bluray-x264-dts-lao-hoa.1720456/

    1080p https://hdvietnam.com/threads/kinh-di-old-2021-1080p-bluray-atmos-truehd-7-1-x264-lao-hoa.1719626/

    4K-HDR https://www.hdvietnam.com/threads/4...truehd7-1-hdr-x265-10bit-chd-lao-hoa.1723605/

    Thuyết minh

    Remux https://www.hdvietnam.com/threads/k...avc-truehd-atmos-7-1-artemis-lao-hoa.1721447/

    Remux 4K https://www.hdvietnam.com/threads/r...s-hd-ma-truehd-7-1-atmos-fgt-lao-hoa.1723956/

    ISO
     
    Chỉnh sửa cuối: 21/10/21
  2. Đang tải...


  3. thichdua

    thichdua Well-Known Member

    Tham gia ngày:
    21/9/11
    Bài viết:
    197
    Đã được cảm ơn:
    689
    phim có mâuy e bịkini nhìn kích thích quá bác nhể
     
  4. hugononglam

    hugononglam Well-Known Member

    Tham gia ngày:
    3/5/09
    Bài viết:
    1,191
    Đã được cảm ơn:
    1,097
    Phim hay. Cảm ơn bác
     

Chia sẻ trang này