[Kinh dị] Stree.2018.Hindi.1080p.WEB-DL.H264.AAC ~ Ác Quỷ Stree

Thảo luận trong 'Fshare.vn' bắt đầu bởi hatieupro7, 24/11/18.

  1. hatieupro7

    hatieupro7 Well-Known Member

    Tham gia ngày:
    26/9/10
    Bài viết:
    364
    Đã được cảm ơn:
    2,900
    Giới tính:
    Nam
    Nghề nghiệp:
    OSIN
    Nơi ở:
    Haiphong city
    STREE (2018)
    ÁC QUỶ STREE
    IMDB (8.2/10): https://www.imdb.com/title/tt8108202/


    [​IMG]

    TRAILER


    SCREENSHOTS
    [​IMG]
    https://imgur.com/a/TPfFT7n
    [​IMG]




    Mã:
    Complete name               : H:\Stree.2018.Hindi.1080p.WEB-DL.H264.AAC.-.TMV\Stree.2018.Hindi.1080p.WEB-DL.H264.AAC.-.TMV.mp4
    Format                      : MPEG-4
    Format profile              : Base Media
    Codec ID                    : isom (isom/iso2/avc1/mp41)
    File size                   : 4.03 GiB
    Duration                    : 2 h 7 min
    Overall bit rate mode       : Constant
    Overall bit rate            : 4 513 kb/s
    Movie name                  : www.TamilMV.biz
    Writing application         : Lavf58.12.100
    Video
    ID                          : 1
    Format                      : AVC
    Format/Info                 : Advanced Video Codec
    Format profile              : [email protected]
    Format settings, CABAC      : Yes
    Format settings, ReFrames   : 1 frame
    Format settings, GOP        : M=1, N=96
    Codec ID                    : avc1
    Codec ID/Info               : Advanced Video Coding
    Duration                    : 2 h 7 min
    Bit rate mode               : Constant
    Bit rate                    : 4 500 kb/s
    Width                       : 1 920 pixels
    Height                      : 1 080 pixels
    Display aspect ratio        : 16:9
    Frame rate mode             : Variable
    Frame rate                  : 24.000 FPS
    Minimum frame rate          : 23.810 FPS
    Maximum frame rate          : 24.390 FPS
    Color space                 : YUV
    Chroma subsampling          : 4:2:0
    Bit depth                   : 8 bits
    Scan type                   : Progressive
    Bits/(Pixel*Frame)          : 0.090
    Stream size                 : 3.97 GiB (98%)
    Title                       : www.TamilMV.biz
    Language                    : Hindi
    Audio
    ID                          : 2
    Format                      : AAC
    Format/Info                 : Advanced Audio Codec
    Format profile              : LC
    Codec ID                    : 40
    Duration                    : 2 h 7 min
    Bit rate mode               : Constant
    Bit rate                    : 61.4 kb/s
    Channel(s)                  : 2 channels
    Channel positions           : Front: L R
    Sampling rate               : 48.0 kHz
    Frame rate                  : 46.875 FPS (1024 spf)
    Compression mode            : Lossy
    Stream size                 : 56.1 MiB (1%)
    Title                       : www.TamilMV.biz
    Language                    : Hindi
    Default                     : Yes
    Alternate group             : 1


    LINK DOWNLOAD:


    Nhấn nút Cảm ơn (dưới chân bài) để thấy link!


    VIETSUB BY BMV.Team
    Nhấn nút Cảm ơn (dưới chân bài) để thấy link!

    Chúc các bạn xem phim vui vẻ!
    #BMV.Team
    #Bollyw00ds
    #hatieupro

    PS: Vì đăng link phim Ấn lên fanpage FB nhiều nên fanpage FB + 2 acc FB chính của mình đã bị disable, bao nhiêu công sức, kỉ niệm đã ra đi... chán chẳng muốn làm sub nữa...
     
  2. Đang tải...


  3. anhlinhp4

    anhlinhp4 Well-Known Member

    Tham gia ngày:
    10/2/10
    Bài viết:
    150
    Đã được cảm ơn:
    525
    Đừng buồn bạn à. Thua keo này ta bày keo khác. Luôn có con đường khác để bạn thực hiện đam mê của mình.
    P/S: Khi nào thì có bản dung lượng lớn hả bạn? Đợi nhé?
     
    GiangGo, s2krazyellow and Mr.Gà like this.
  4. JamesNg

    JamesNg New Member

    Tham gia ngày:
    6/4/10
    Bài viết:
    20
    Đã được cảm ơn:
    10
    Cám on bạn.
     
    Mr.Gà cảm ơn bài này.
  5. hatieupro7

    hatieupro7 Well-Known Member

    Tham gia ngày:
    26/9/10
    Bài viết:
    364
    Đã được cảm ơn:
    2,900
    Giới tính:
    Nam
    Nghề nghiệp:
    OSIN
    Nơi ở:
    Haiphong city
    Tối qua mình lại bị disable thêm acc clone (ban đầu là clone, đổi tên, ava... và rồi vài tiếng sau nó dis :(
    Phim mới chiếu chưa có Bluray, có mình sẽ update...
     
    Mr.Gà and phammanhhung65 like this.
  6. hatieupro7

    hatieupro7 Well-Known Member

    Tham gia ngày:
    26/9/10
    Bài viết:
    364
    Đã được cảm ơn:
    2,900
    Giới tính:
    Nam
    Nghề nghiệp:
    OSIN
    Nơi ở:
    Haiphong city
    Phim này các web đặt tên là Vợ ma
     
  7. hatieupro7

    hatieupro7 Well-Known Member

    Tham gia ngày:
    26/9/10
    Bài viết:
    364
    Đã được cảm ơn:
    2,900
    Giới tính:
    Nam
    Nghề nghiệp:
    OSIN
    Nơi ở:
    Haiphong city
    Bộ phim tiếp theo sắp bị xoá. Có host nào không bị xoá không nhỉ các bạn?
     

Chia sẻ trang này