[Kinh Dị ] The Night House 2020 720p BluRay x264 DTS-MT - Ngôi nhà về đêm

Thảo luận trong 'Fshare.vn' bắt đầu bởi xemaydinh, 12/10/21.

  1. xemaydinh

    xemaydinh Tem

    Tham gia ngày:
    3/7/10
    Bài viết:
    30,464
    Đã được cảm ơn:
    139,629
    The Night House 2020 720p BluRay x264 DTS-MT

    Ngôi nhà về đêm

    [​IMG]



    Ngôi Nhà Về Đêm - The Night House xoay quanh câu chuyên về người phụ nữ Beth đang phải đau buồn và gặp rắc rối khi phải đối mặt với một cái chết đầy bất ngờ của người chồng cô. Không những vậy, Beth còn bị bỏ lại trong một căn nhà nằm cạnh hồ mà người chồng quá cố đã xây cho cô. Không lâu sau đó, Beth vô tình phát hiện ra những bí mật vô cùng kinh hoàng về người chồng của cô che giấu.

    Video

    ID : 1
    Format : AVC
    Format/Info : Advanced Video Codec
    Format profile : [email protected]
    Format settings : CABAC / 12 Ref Frames
    Format settings, CABAC : Yes
    Format settings, Reference frames : 12 frames
    Codec ID : V_MPEG4/ISO/AVC
    Duration : 1 h 47 min
    Bit rate : 5 004 kb/s
    Width : 1 280 pixels
    Height : 534 pixels
    Display aspect ratio : 2.40:1
    Frame rate mode : Constant
    Frame rate : 23.976 (24000/1001) FPS
    Color space : YUV
    Chroma subsampling : 4:2:0
    Bit depth : 8 bits
    Scan type : Progressive
    Bits/(Pixel*Frame) : 0.305
    Stream size : 3.74 GiB (77%)
    Writing library : x264 core 157 r2938 2b00a84 [email protected] Mod
    Encoding settings : cabac=1 / ref=12 / deblock=1:-3:-3 / analyse=0x3:0x133 / me=umh / subme=10 / psy=1 / psy_rd=1.05:0.00 / mixed_ref=1 / me_range=32 / chroma_me=1 / trellis=2 / 8x8dct=1 / cqm=0 / deadzone=21,11 / fast_pskip=0 / chroma_qp_offset=-2 / threads=12 / lookahead_threads=2 / sliced_threads=0 / nr=0 / decimate=0 / interlaced=0 / bluray_compat=0 / constrained_intra=0 / bframes=8 / b_pyramid=2 / b_adapt=2 / b_bias=0 / direct=3 / weightb=1 / open_gop=0 / weightp=2 / keyint=250 / keyint_min=24 / scenecut=40 / intra_refresh=0 / rc_lookahead=250 / rc=crf / mbtree=0 / crf=16.8 / qcomp=0.60 / qpmin=0 / qpmax=69 / qpstep=4 / vbv_maxrate=62500 / vbv_bufsize=78125 / crf_max=0.0 / nal_hrd=none / filler=0 / ip_ratio=1.30 / pb_ratio=1.20 / aq=3:0.80
    Language : English
    Default : Yes
    Forced : No
    Color range : Limited
    Color primaries : BT.709
    Matrix coefficients : BT.709

    Audio
    ID : 2
    Format : DTS
    Format/Info : Digital Theater Systems
    Codec ID : A_DTS
    Duration : 1 h 47 min
    Bit rate mode : Constant
    Bit rate : 1 509 kb/s
    Channel(s) : 6 channels
    Channel layout : C L R Ls Rs LFE
    Sampling rate : 48.0 kHz
    Frame rate : 93.750 FPS (512 SPF)
    Bit depth : 24 bits
    Compression mode : Lossy
    Stream size : 1.13 GiB (23%)
    Language : English
    Default : Yes
    Forced : No

    Text #1
    ID : 3
    Format : UTF-8
    Codec ID : S_TEXT/UTF8
    Codec ID/Info : UTF-8 Plain Text
    Duration : 1 h 39 min
    Bit rate : 29 b/s
    Count of elements : 769
    Stream size : 21.4 KiB (0%)
    Title : SRT
    Language : English
    Default : Yes
    Forced : No

    Text #2
    ID : 4
    Format : PGS
    Muxing mode : zlib
    Codec ID : S_HDMV/PGS
    Codec ID/Info : Picture based subtitle format used on BDs/HD-DVDs
    Duration : 1 h 40 min
    Bit rate : 29.0 kb/s
    Count of elements : 2342
    Stream size : 20.9 MiB (0%)
    Language : English
    Default : No
    Forced : No

    Menu
    00:00:00.000 : Chapter 01
    00:03:41.388 : Chapter 02
    00:08:08.780 : Chapter 03
    00:15:38.271 : Chapter 04
    00:21:15.483 : Chapter 05
    00:24:03.609 : Chapter 06
    00:33:32.636 : Chapter 07
    00:38:48.117 : Chapter 08
    00:42:51.778 : Chapter 09
    00:47:48.699 : Chapter 10
    00:52:50.250 : Chapter 11
    00:56:07.239 : Chapter 12
    01:00:40.804 : Chapter 13
    01:05:21.251 : Chapter 14
    01:09:02.847 : Chapter 15
    01:14:59.453 : Chapter 16
    01:18:13.022 : Chapter 17
    01:23:28.879 : Chapter 18
    01:27:40.297 : Chapter 19
    01:32:13.862 : Chapter 20
    01:33:52.919 : Chapter 21
    01:35:02.363 : Chapter 22
    01:39:19.537 : Chapter 23
    01:41:26.580 : Chapter 24


    [​IMG] [​IMG]
    [​IMG] [​IMG]
    [​IMG] [​IMG]



    mhd https://www.hdvietnam.com/threads/k...bluray-dd5-1x264-xmd-ngoi-nha-ve-dem.1720475/

    720p https://www.hdvietnam.com/threads/k...p-bluray-x264-dts-mt-ngoi-nha-ve-dem.1720474/

    1080p https://www.hdvietnam.com/threads/k...y-dts-hd-ma-5-1-x264-ngoi-nha-ve-dem.1719615/

    Thuyết minh

    Remux https://www.hdvietnam.com/threads/k...vc-dts-hd-ma-5-1-fgt-ngoi-nha-ve-dem.1721952/

    ISO
     
    Chỉnh sửa cuối: 16/10/21
    laobaphi cảm ơn bài này.
  2. Đang tải...


  3. Smarthouse2021

    Smarthouse2021 New Member

    Tham gia ngày:
    13/10/21
    Bài viết:
    7
    Đã được cảm ơn:
    0
    Giới tính:
    Nam
  4. xemaydinh

    xemaydinh Tem

    Tham gia ngày:
    3/7/10
    Bài viết:
    30,464
    Đã được cảm ơn:
    139,629

Chia sẻ trang này