[Fshare] (Kinh Điển)The Street King-Ông Trùm 1999 SD - immort (28/28)

Thảo luận trong 'mHD, SD' bắt đầu bởi immort, 7/11/12.

  1. immort

    immort Well-Known Member

    Tham gia ngày:
    11/9/09
    Bài viết:
    579
    Đã được cảm ơn:
    453
    Nơi ở:
    Nhà xác
    THE STREET KING - ÔNG TRÙM
    1999



    [​IMG]


    Mã:
    Format                                   : Matroska
    Format version                           : Version 2
    File size                                : 276 MiB
    Duration                                 : 58mn 13s
    Overall bit rate                         : 664 Kbps
    
    
    Encoded date                             : UTC 2012-11-05 00:43:44
    Writing application                      : mkvmerge v5.7.0 ('The Whirlwind') built on Jul  8 2012 20:08:51
    Writing library                          : libebml v1.2.3 + libmatroska v1.3.0
    
    Video
    ID                                       : 1
    Format                                   : AVC
    Format/Info                              : Advanced Video Codec
    Format profile                           : [email protected]
    Format settings, CABAC                   : Yes
    Format settings, ReFrames                : 8 frames
    Muxing mode                              : Header stripping
    Codec ID                                 : V_MPEG4/ISO/AVC
    Duration                                 : 58mn 13s
    Bit rate                                 : 330 Kbps
    Nominal bit rate                         : 4 999 Kbps
    Width                                    : 576 pixels
    Height                                   : 432 pixels
    Display aspect ratio                     : 4:3
    Frame rate mode                          : Constant
    Frame rate                               : 30.000 fps
    Color space                              : YUV
    Chroma subsampling                       : 4:2:0
    Bit depth                                : 8 bits
    Scan type                                : Progressive
    Bits/(Pixel*Frame)                       : 0.044
    Stream size                              : 138 MiB (50%)
    Writing library                          : x264 core 125 r2200 999b753
    Encoding settings                        : cabac=1 / ref=8 / deblock=1:-1:-1 / analyse=0x3:0x113 / me=umh / subme=6 / psy=1 / psy_rd=1.00:0.00 / mixed_ref=1 / me_range=16 / chroma_me=1 / trellis=2 / 8x8dct=1 / cqm=0 / deadzone=21,11 / fast_pskip=1 / chroma_qp_offset=-2 / threads=6 / lookahead_threads=1 / sliced_threads=0 / nr=0 / decimate=1 / interlaced=0 / bluray_compat=0 / constrained_intra=0 / bframes=3 / b_pyramid=2 / b_adapt=2 / b_bias=0 / direct=3 / weightb=1 / open_gop=0 / weightp=2 / keyint=300 / keyint_min=30 / scenecut=40 / intra_refresh=0 / rc_lookahead=40 / rc=2pass / mbtree=1 / bitrate=4999 / ratetol=1.0 / qcomp=0.60 / qpmin=10 / qpmax=51 / qpstep=4 / cplxblur=20.0 / qblur=0.5 / vbv_maxrate=17500 / vbv_bufsize=14000 / nal_hrd=none / ip_ratio=1.40 / aq=1:1.00
    Language                                 : English
    Default                                  : Yes
    Forced                                   : No
    
    Audio
    ID                                       : 2
    Format                                   : MPEG Audio
    Format version                           : Version 1
    Format profile                           : Layer 3
    Mode                                     : Joint stereo
    Muxing mode                              : Header stripping
    Codec ID                                 : A_MPEG/L3
    Codec ID/Hint                            : MP3
    Duration                                 : 58mn 13s
    Bit rate mode                            : Constant
    Bit rate                                 : 320 Kbps
    Channel(s)                               : 2 channels
    Sampling rate                            : 48.0 KHz
    Compression mode                         : Lossy
    Stream size                              : 133 MiB (48%)
    Writing library                          : LAME3.97
    Default                                  : Yes
    Forced                                   : No
    
    
    [​IMG]

    Mã:
    [B][COLOR="#4B0082"]Vietsub by The Deers vOz
    Encoder & Uploader: immort[/COLOR][/B]
    FSHARE

    EP01:
    EP02:
    EP03:
    EP04:
    EP05:
    EP06:
    EP07:
    EP08:
    EP09:
    Ep10:
    Ep11:
    Ep12:
    Ep13:
    Ep14:
    Ep15:
    Ep16:
    Ep17:
    Ep18:
    Ep19:
    Ep20:
    Ep21:
    Ep22:
    Ep23:
    Ep24:
    Ep25:
    Ep26:
    Ep27:
    Ep28:
     
    dungphanx2 cảm ơn bài này.

Chia sẻ trang này