Kung Fu Panda 1-2-3 Thuyết Minh, 2 Audio + Sub Việt(PDV dịch)

Thảo luận trong 'Phim hoạt hình' bắt đầu bởi letienvy, 28/8/21.

  1. letienvy

    letienvy Member

    Tham gia ngày:
    30/12/09
    Bài viết:
    34
    Đã được cảm ơn:
    57
    Tổng hợp Kung Fu Panda 1 2 và 3 thuyết minh, 2 audio Vi En, sub do Phụ Đề Việt dịch.
    [​IMG]
    Mã:
    General
    Unique ID                                : 185648290767470757092057012611989343834 (0x8BAA8F6B522B0D99F5D16953CA678E5A)
    Complete name                            : Kung Fu Panda 2008 RERiP ViE 1080p.BluRay.x264.DTS-WiKi.mkv
    
    
    	

    Format : Matroska

    Format version : Version 4 File size : 7.41 GiB Duration : 1 h 32 min Overall bit rate : 11.5 Mb/s Encoded date : UTC 2021-08-28 11:21:33 Writing application : mkvmerge v60.0.0 ('Are We Copies?') 64-bit Writing library : libebml v1.4.2 + libmatroska v1.6.4 Video ID : 1 Format : AVC Format/Info : Advanced Video Codec Format profile : [email protected] Format settings : CABAC / 4 Ref Frames Format settings, CABAC : Yes Format settings, Reference frames : 4 frames Codec ID : V_MPEG4/ISO/AVC Duration : 1 h 32 min Bit rate : 9 550 kb/s Width : 1 920 pixels Height : 816 pixels Display aspect ratio : 2.35:1 Frame rate mode : Constant Frame rate : 23.976 FPS Color space : YUV Chroma subsampling : 4:2:0 Bit depth : 8 bits Scan type : Progressive Bits/(Pixel*Frame) : 0.254 Stream size : 6.15 GiB (83%) Writing library : x264 core 98 r1649 c54c47d Encoding settings : cabac=1 / ref=4 / deblock=1:-1:-1 / analyse=0x3:0x113 / me=umh / subme=9 / psy=1 / psy_rd=1.00:0.10 / mixed_ref=1 / me_range=48 / chroma_me=1 / trellis=2 / 8x8dct=1 / cqm=0 / deadzone=21,11 / fast_pskip=0 / chroma_qp_offset=-5 / threads=6 / sliced_threads=0 / nr=0 / decimate=0 / interlaced=0 / constrained_intra=0 / bframes=6 / b_pyramid=2 / b_adapt=2 / b_bias=0 / direct=3 / weightb=1 / weightp=2 / keyint=250 / keyint_min=25 / scenecut=40 / intra_refresh=0 / rc_lookahead=48 / rc=2pass / mbtree=1 / bitrate=9550 / ratetol=1.0 / qcomp=0.60 / qpmin=10 / qpmax=51 / qpstep=4 / cplxblur=20.0 / qblur=0.5 / ip_ratio=1.40 / aq=1:0.90 Language : English Default : Yes Forced : No Audio #1 ID : 2 Format : AC-3 Format/Info : Audio Coding 3 Commercial name : Dolby Digital Codec ID : A_AC3 Duration : 1 h 32 min Bit rate mode : Constant Bit rate : 448 kb/s Channel(s) : 6 channels Channel layout : L R C LFE Ls Rs Sampling rate : 48.0 kHz Frame rate : 31.250 FPS (1536 SPF) Compression mode : Lossy Stream size : 295 MiB (4%) Language : Vietnamese Service kind : Complete Main Default : Yes Forced : Yes Audio #2 ID : 4 Format : DTS Format/Info : Digital Theater Systems Codec ID : A_DTS Duration : 1 h 32 min Bit rate mode : Constant Bit rate : 1 510 kb/s Channel(s) : 6 channels Channel layout : C L R Ls Rs LFE Sampling rate : 48.0 kHz Frame rate : 93.750 FPS (512 SPF) Bit depth : 24 bits Compression mode : Lossy Stream size : 995 MiB (13%) Language : English Default : No Forced : No Text ID : 3 Format : UTF-8 Codec ID : S_TEXT/UTF8 Codec ID/Info : UTF-8 Plain Text Duration : 1 h 23 min Bit rate : 68 b/s Count of elements : 1059 Stream size : 41.9 KiB (0%) Default : No Forced : No
    [​IMG]
    Mã:
    General
    Unique ID                                : 308177231157982912471780122275549170751 (0xE7D8C698A2FC4FD368117EF13C764C3F)
    Complete name                            : Kung.Fu.Panda.2.2011.ViE.BluRay.1080p.DTS.x264-CHD.mkv
    Format                                   : Matroska
    Format version                           : Version 4
    File size                                : 6.82 GiB
    Duration                                 : 1 h 30 min
    Overall bit rate                         : 10.8 Mb/s
    Encoded date                             : UTC 2021-08-28 11:36:31
    Writing application                      : mkvmerge v60.0.0 ('Are We Copies?') 64-bit
    Writing library                          : libebml v1.4.2 + libmatroska v1.6.4
    Video
    ID                                       : 1
    Format                                   : AVC
    Format/Info                              : Advanced Video Codec
    Format profile                           : [email protected]
    Format settings                          : CABAC / 5 Ref Frames
    Format settings, CABAC                   : Yes
    Format settings, Reference frames        : 5 frames
    Codec ID                                 : V_MPEG4/ISO/AVC
    Duration                                 : 1 h 30 min
    Bit rate                                 : 8 835 kb/s
    Width                                    : 1 920 pixels
    Height                                   : 816 pixels
    Display aspect ratio                     : 2.35:1
    Frame rate mode                          : Constant
    Frame rate                               : 23.976 FPS
    Color space                              : YUV
    Chroma subsampling                       : 4:2:0
    Bit depth                                : 8 bits
    Scan type                                : Progressive
    Bits/(Pixel*Frame)                       : 0.235
    Stream size                              : 5.58 GiB (82%)
    Title                                    : Kung.Fu.Panda.2.2011
    Writing library                          : x264 core 116 r2074 2641b9e
    Encoding settings                        : cabac=1 / ref=5 / deblock=1:-2:-2 / analyse=0x3:0x113 / me=umh / subme=11 / psy=1 / psy_rd=1.00:0.05 / mixed_ref=1 / me_range=48 / chroma_me=1 / trellis=2 / 8x8dct=1 / cqm=0 / deadzone=21,11 / fast_pskip=0 / chroma_qp_offset=-2 / threads=8 / sliced_threads=0 / nr=0 / decimate=1 / interlaced=0 / bluray_compat=0 / constrained_intra=0 / bframes=5 / b_pyramid=2 / b_adapt=2 / b_bias=0 / direct=3 / weightb=1 / open_gop=0 / weightp=2 / keyint=250 / keyint_min=23 / scenecut=40 / intra_refresh=0 / rc_lookahead=40 / rc=2pass / mbtree=0 / bitrate=8835 / ratetol=1.0 / qcomp=0.70 / qpmin=0 / qpmax=69 / qpstep=4 / cplxblur=20.0 / qblur=0.5 / vbv_maxrate=40000 / vbv_bufsize=40000 / nal_hrd=none / ip_ratio=1.40 / pb_ratio=1.30 / aq=2:1.00
    Language                                 : English
    Default                                  : No
    Forced                                   : No
    Audio #1
    ID                                       : 2
    Format                                   : DTS
    Format/Info                              : Digital Theater Systems
    Codec ID                                 : A_DTS
    Duration                                 : 1 h 30 min
    Bit rate mode                            : Constant
    Bit rate                                 : 1 510 kb/s
    Channel(s)                               : 6 channels
    Channel layout                           : C L R Ls Rs LFE
    Sampling rate                            : 48.0 kHz
    Frame rate                               : 93.750 FPS (512 SPF)
    Bit depth                                : 24 bits
    Compression mode                         : Lossy
    Stream size                              : 976 MiB (14%)
    Title                                    : DTS-5.1CH 1536K(From TrueHD7.1 24BIT)
    Language                                 : English
    Default                                  : No
    Forced                                   : No
    Audio #2
    ID                                       : 3
    Format                                   : AC-3
    Format/Info                              : Audio Coding 3
    Commercial name                          : Dolby Digital
    Codec ID                                 : A_AC3
    Duration                                 : 1 h 30 min
    Bit rate mode                            : Constant
    Bit rate                                 : 448 kb/s
    Channel(s)                               : 6 channels
    Channel layout                           : L R C LFE Ls Rs
    Sampling rate                            : 48.0 kHz
    Frame rate                               : 31.250 FPS (1536 SPF)
    Compression mode                         : Lossy
    Stream size                              : 290 MiB (4%)
    Language                                 : Vietnamese
    Service kind                             : Complete Main
    Default                                  : Yes
    Forced                                   : Yes
    Text
    ID                                       : 4
    Format                                   : UTF-8
    Codec ID                                 : S_TEXT/UTF8
    Codec ID/Info                            : UTF-8 Plain Text
    Duration                                 : 1 h 21 min
    Bit rate                                 : 65 b/s
    Count of elements                        : 1036
    Stream size                              : 39.0 KiB (0%)
    Language                                 : Vietnamese
    Default                                  : No
    Forced                                   : No
    
    [​IMG]

    Mã:
    General
    Unique ID                                : 113244240583642711171084793419685567907 (0x55320C2234C0039AA425E78EB3D21DA3)
    Complete name                            : Kung.Fu.Panda.3.2016.VIE.DUB.Bluray.1080p.DD5.1.x264.mkv
    Format                                   : Matroska
    Format version                           : Version 4
    File size                                : 5.06 GiB
    Duration                                 : 1 h 34 min
    Overall bit rate                         : 7 629 kb/s
    Encoded date                             : UTC 2021-08-28 11:43:16
    Writing application                      : mkvmerge v60.0.0 ('Are We Copies?') 64-bit
    Writing library                          : libebml v1.4.2 + libmatroska v1.6.4
    Video
    ID                                       : 1
    Format                                   : AVC
    Format/Info                              : Advanced Video Codec
    Format profile                           : [email protected]
    Format settings                          : CABAC / 5 Ref Frames
    Format settings, CABAC                   : Yes
    Format settings, Reference frames        : 5 frames
    Codec ID                                 : V_MPEG4/ISO/AVC
    Duration                                 : 1 h 34 min
    Bit rate                                 : 6 732 kb/s
    Width                                    : 1 920 pixels
    Height                                   : 816 pixels
    Display aspect ratio                     : 2.35:1
    Frame rate mode                          : Constant
    Frame rate                               : 23.976 FPS
    Color space                              : YUV
    Chroma subsampling                       : 4:2:0
    Bit depth                                : 8 bits
    Scan type                                : Progressive
    Bits/(Pixel*Frame)                       : 0.179
    Stream size                              : 4.46 GiB (88%)
    Writing library                          : x264 core 148 r2692 64f4e24
    Encoding settings                        : cabac=1 / ref=5 / deblock=1:0:0 / analyse=0x3:0x133 / me=umh / subme=7 / psy=1 / psy_rd=1.00:0.00 / mixed_ref=1 / me_range=16 / chroma_me=1 / trellis=1 / 8x8dct=1 / cqm=0 / deadzone=21,11 / fast_pskip=0 / chroma_qp_offset=-2 / threads=24 / lookahead_threads=4 / sliced_threads=0 / nr=0 / decimate=1 / interlaced=0 / bluray_compat=0 / constrained_intra=0 / bframes=3 / b_pyramid=2 / b_adapt=1 / b_bias=0 / direct=1 / weightb=1 / open_gop=0 / weightp=2 / keyint=250 / keyint_min=23 / scenecut=40 / intra_refresh=0 / rc_lookahead=40 / rc=2pass / mbtree=1 / bitrate=6732 / ratetol=1.0 / qcomp=0.60 / qpmin=0 / qpmax=69 / qpstep=4 / cplxblur=20.0 / qblur=0.5 / ip_ratio=1.40 / aq=1:1.00
    Language                                 : English
    Default                                  : Yes
    Forced                                   : No
    Audio #1
    ID                                       : 2
    Format                                   : AC-3
    Format/Info                              : Audio Coding 3
    Commercial name                          : Dolby Digital
    Codec ID                                 : A_AC3
    Duration                                 : 1 h 34 min
    Bit rate mode                            : Constant
    Bit rate                                 : 448 kb/s
    Channel(s)                               : 6 channels
    Channel layout                           : L R C LFE Ls Rs
    Sampling rate                            : 48.0 kHz
    Frame rate                               : 31.250 FPS (1536 SPF)
    Compression mode                         : Lossy
    Stream size                              : 304 MiB (6%)
    Language                                 : Vietnamese
    Service kind                             : Complete Main
    Default                                  : Yes
    Forced                                   : No
    Audio #2
    ID                                       : 3
    Format                                   : AC-3
    Format/Info                              : Audio Coding 3
    Commercial name                          : Dolby Digital
    Codec ID                                 : A_AC3
    Duration                                 : 1 h 34 min
    Bit rate mode                            : Constant
    Bit rate                                 : 448 kb/s
    Channel(s)                               : 6 channels
    Channel layout                           : L R C LFE Ls Rs
    Sampling rate                            : 48.0 kHz
    Frame rate                               : 31.250 FPS (1536 SPF)
    Compression mode                         : Lossy
    Stream size                              : 304 MiB (6%)
    Language                                 : English
    Service kind                             : Complete Main
    Default                                  : No
    Forced                                   : No
    Text
    ID                                       : 4
    Format                                   : UTF-8
    Codec ID                                 : S_TEXT/UTF8
    Codec ID/Info                            : UTF-8 Plain Text
    Duration                                 : 1 h 22 min
    Bit rate                                 : 78 b/s
    Count of elements                        : 1290
    Stream size                              : 47.4 KiB (0%)
    Language                                 : Vietnamese
    Default                                  : No
    Forced                                   : No
    Menu
    00:00:00.000                             : 00:00:00.000
    00:05:21.780                             : 00:05:21.780
    00:08:10.240                             : 00:08:10.240
    00:10:00.016                             : 00:10:00.016
    00:12:26.037                             : 00:12:26.037
    00:15:24.215                             : 00:15:24.215
    00:19:08.230                             : 00:19:08.230
    00:24:39.395                             : 00:24:39.395
    00:30:17.607                             : 00:30:17.607
    00:33:53.990                             : 00:33:53.990
    00:36:18.259                             : 00:36:18.259
    00:39:55.643                             : 00:39:55.643
    00:43:32.652                             : 00:43:32.652
    00:46:45.845                             : 00:46:45.845
    00:51:41.181                             : 00:51:41.181
    00:56:04.611                             : 00:56:04.611
    00:59:48.168                             : 00:59:48.168
    01:02:11.353                             : 01:02:11.353
    01:05:26.965                             : 01:05:26.965
    01:10:16.838                             : 01:10:16.838
    01:14:06.901                             : 01:14:06.901
    01:17:06.580                             : 01:17:06.580
    01:20:34.788                             : 01:20:34.788
    01:24:21.181                             : 01:24:21.181
    
    Phim up trong phân vùng không đảm bảo, die các bạn báo trong thread này để mình reup nhé. Bộ này mình sưu tầm để cho các bé nhà mình xem nên còn trong HDD.
    Nhấn nút Cảm ơn (dưới chân bài) để thấy link!
     
    Chỉnh sửa cuối: 28/8/21
    saukho, duongxd05, trinhsong and 34 others like this.
  2. Đang tải...


  3. letienvy

    letienvy Member

    Tham gia ngày:
    30/12/09
    Bài viết:
    34
    Đã được cảm ơn:
    57
    @cloud35 bác đợi tầm 5 phút nhé, em đang up, sắp xong rồi
     
    htc2704 cảm ơn bài này.
  4. htc2704

    htc2704 New Member

    Tham gia ngày:
    28/8/21
    Bài viết:
    1
    Đã được cảm ơn:
    0
    Giới tính:
    Nam
    Up đc chưa bác?
     
  5. letienvy

    letienvy Member

    Tham gia ngày:
    30/12/09
    Bài viết:
    34
    Đã được cảm ơn:
    57
    Đủ rồi bạn nha.
     
  6. revmis

    revmis Member

    Tham gia ngày:
    11/10/09
    Bài viết:
    39
    Đã được cảm ơn:
    16
    Có bản 2, và bản 3. Không thấy có bản 1, nhờ bác
     

Chia sẻ trang này