[MULTI] Me Before You (2016) 1080p WEBRip x264 AAC2.0-STUTTERSHIT

Thảo luận trong 'mHD, SD' bắt đầu bởi otik00, 14/8/16.

  1. otik00

    otik00 Well-Known Member

    Tham gia ngày:
    27/12/12
    Bài viết:
    20,787
    Đã được cảm ơn:
    222
    Me Before You (2016) 1080p WEBRip x264 AAC2.0-STUTTERSHIT

    [​IMG]

    Mã:
    http://www.imdb.com/title/tt2674426/
    
    
    	

    Lou Clark knows lots of things. She knows how many footsteps there are between the bus stop and home. She knows she likes working in The Buttered Bun tea shop and she knows she might not love her boyfriend Patrick. What Lou doesn't know is she's about to lose her job or that knowing what's coming is what keeps her sane. Will Traynor knows his motorcycle accident took away his desire to live. He knows everything feels very small and rather joyless now and he knows exactly how he's going to put a stop to that. What Will doesn't know is that Lou is about to burst into his world in a riot of color. And neither of them knows they're going to change each other for all time.

    [mediainfo] Video ID : 1 Format : AVC Format/Info : Advanced Video Codec Format profile : [email protected] Format settings, CABAC : Yes Format settings, ReFrames : 4 frames Codec ID : avc1 Codec ID/Info : Advanced Video Coding Duration : 1h 50mn Bit rate : 4 500 Kbps Width : 1 920 pixels Height : 804 pixels Display aspect ratio : 2.40:1 Frame rate mode : Constant Frame rate : 29.970 (30000/1001) fps Color space : YUV Chroma subsampling : 4:2:0 Bit depth : 8 bits Scan type : Progressive Bits/(Pixel*Frame) : 0.097 Stream size : 3.48 GiB (95%) Title : Me.Before.You.2016.1080p.WEBRip.x264.AAC2.0-STUTTERSHIT Writing library : x264 core 148 r2597M e86f3a1 Encoding settings : cabac=1 / ref=4 / deblock=1:0:0 / analyse=0x3:0x113 / me=umh >> / subme=8 / psy=1 / psy_rd=1.00:0.00 / mixed_ref=1 / me_range=16 / chroma_me=1 / trellis=1 / 8x8dct=1 >> / cqm=0 / deadzone=21,11 / fast_pskip=1 / chroma_qp_offset=-2 / threads=40 / lookahead_threads=6 / >> sliced_threads=0 / nr=0 / decimate=1 / interlaced=0 / bluray_compat=0 / constrained_intra=0 / >> bframes=3 / b_pyramid=2 / b_adapt=2 / b_bias=0 / direct=3 / weightb=1 / open_gop=0 / weightp=2 / >> keyint=250 / keyint_min=25 / scenecut=40 / intra_refresh=0 / rc_lookahead=50 / rc=abr / mbtree=1 / >> bitrate=4500 / ratetol=1.0 / qcomp=0.60 / qpmin=0 / qpmax=69 / qpstep=4 / ip_ratio=1.40 / aq=1:1.00 Audio ID : 2 Format : AAC Format/Info : Advanced Audio Codec Format profile : LC Codec ID : 40 Duration : 1h 50mn Bit rate mode : Constant Bit rate : 224 Kbps Channel(s) : 2 channels Channel positions : Front: L R Sampling rate : 48.0 KHz Frame rate : 46.875 fps (1024 spf) Compression mode : Lossy Stream size : 178 MiB (5%) Title : Me.Before.You.2016.1080p.WEBRip.x264.AAC2.0-STUTTERSHIT Default : Yes Alternate group : 1 [/mediainfo]
    [​IMG]

    [​IMG]

    Mã:
    http://rapidgator.net/file/78dc9104df3b570430cc1ff455317b21/Me.Before.ss1-STUTTERSHIT.part1.rar.html
    http://rapidgator.net/file/9f016dd0330e0075444e4d7667b8ebba/Me.Before.ss1-STUTTERSHIT.part2.rar.html
    http://rapidgator.net/file/11e2888ab8ab0c8ef6489d044a95042b/Me.Before.ss1-STUTTERSHIT.part3.rar.html
    http://rapidgator.net/file/81065eb60763010083e7621d6f65a1b5/Me.Before.ss1-STUTTERSHIT.part4.rar.html
    http://uploaded.net/file/e6kfkyb3/Me.Before.ss1-STUTTERSHIT.part1.rar
    http://uploaded.net/file/sg4py2w2/Me.Before.ss1-STUTTERSHIT.part2.rar
    http://uploaded.net/file/omuope9c/Me.Before.ss1-STUTTERSHIT.part3.rar
    http://uploaded.net/file/68p9850o/Me.Before.ss1-STUTTERSHIT.part4.rar
     
  2. Đang tải...


Chia sẻ trang này