[MULTI] Me Before You (2016) 720p WEBRip XviD MP3-STUTTERSHIT

Thảo luận trong 'mHD, SD' bắt đầu bởi otik00, 14/8/16.

  1. otik00

    otik00 Well-Known Member

    Tham gia ngày:
    27/12/12
    Bài viết:
    20,787
    Đã được cảm ơn:
    222
    Me Before You (2016) 720p WEBRip XviD MP3-STUTTERSHIT

    [​IMG]

    Mã:
    http://www.imdb.com/title/tt2674426/
    
    
    	

    Lou Clark knows lots of things. She knows how many footsteps there are between the bus stop and home. She knows she likes working in The Buttered Bun tea shop and she knows she might not love her boyfriend Patrick. What Lou doesn't know is she's about to lose her job or that knowing what's coming is what keeps her sane. Will Traynor knows his motorcycle accident took away his desire to live. He knows everything feels very small and rather joyless now and he knows exactly how he's going to put a stop to that. What Will doesn't know is that Lou is about to burst into his world in a riot of color. And neither of them knows they're going to change each other for all time.

    [mediainfo] Video ID : 0 Format : MPEG-4 Visual Format profile : [email protected] Format settings, BVOP : No Format settings, QPel : No Format settings, GMC : No warppoints Format settings, Matrix : Default (H.263) Codec ID : XVID Codec ID/Hint : XviD Duration : 1h 50mn Bit rate : 3 089 Kbps Width : 1 280 pixels Height : 536 pixels Display aspect ratio : 2.40:1 Frame rate : 29.970 fps Color space : YUV Chroma subsampling : 4:2:0 Bit depth : 8 bits Scan type : Progressive Compression mode : Lossy Bits/(Pixel*Frame) : 0.150 Stream size : 2.39 GiB (94%) Writing library : Lavc57.16.101 Audio ID : 1 Format : MPEG Audio Format version : Version 1 Format profile : Layer 3 Mode : Joint stereo Mode extension : MS Stereo Codec ID : 55 Codec ID/Hint : MP3 Duration : 1h 50mn Bit rate mode : Constant Bit rate : 192 Kbps Channel(s) : 2 channels Sampling rate : 48.0 KHz Compression mode : Lossy Stream size : 152 MiB (6%) Alignment : Aligned on interleaves Interleave, duration : 24 ms (0.72 video frame) Interleave, preload duration : 504 ms [/mediainfo]
    [​IMG]

    [​IMG]

    Mã:
    http://uploaded.net/file/vaj3k9t7/Me.Before.ss7-STUTTERSHIT.part1.rar
    http://uploaded.net/file/zljsfysz/Me.Before.ss7-STUTTERSHIT.part2.rar
    http://uploaded.net/file/uminvaxe/Me.Before.ss7-STUTTERSHIT.part3.rar
    http://rapidgator.net/file/38872a8bedd46c1e80bd306c6156c8d4/Me.Before.ss7-STUTTERSHIT.part1.rar.html
    http://rapidgator.net/file/a8414d79777caad9d90ba15f8409138d/Me.Before.ss7-STUTTERSHIT.part2.rar.html
    http://rapidgator.net/file/8af07df2a661a8354ee442170c6172cf/Me.Before.ss7-STUTTERSHIT.part3.rar.html
     
  2. Đang tải...


Chia sẻ trang này