[MULTI] Mechanic Resurrection (2016) HDTS x264-VAiN

Thảo luận trong 'mHD, SD' bắt đầu bởi otik00, 14/8/16.

  1. otik00

    otik00 Well-Known Member

    Tham gia ngày:
    27/12/12
    Bài viết:
    20,787
    Đã được cảm ơn:
    222
    Mechanic Resurrection (2016) HDTS x264-VAiN

    [​IMG]

    Mã:
    P R E S E N T S . . . .
    
    
    	

    Mechanic.2.Resurrection.HDTS.x264-VAiN

    iMDB........: http://www.imdb.com/title/tt3522806/ T E C H N i C A L . i N F O . . . Basic Information Format : Matroska Format version : Version 4 / Version 2 File size : 1.37 GiB Duration : 1 h 35 min Overall bit rate mode : Variable Overall bit rate : 2 060 kb/s Encoded date : UTC 2016-08-11 22:51:47 Writing application : mkvmerge v8.3.0 ('Over the Horizon') 64bit Writing library : libebml v1.3.1 + libmatroska v1.4.2 Video ID : 1 Format : AVC Format/Info : Advanced Video Codec Format profile : [email protected] Format settings, CABAC : Yes Format settings, ReFrames : 3 frames Codec ID : V_MPEG4/ISO/AVC Duration : 1 h 35 min Bit rate mode : Variable Bit rate : 1 866 kb/s Maximum bit rate : 40.0 Mb/s Width : 704 pixels Height : 288 pixels Display aspect ratio : 2.40:1 Frame rate mode : Constant Frame rate : 23.976 (24000/1001) FPS Color space : YUV Chroma subsampling : 4:2:0 Bit depth : 8 bits Scan type : Progressive Bits/(Pixel*Frame) : 0.384 Stream size : 1.24 GiB (91%) Writing library : x264 core 148 r2692 64f4e24 Default : Yes Forced : No Color range : Full Color primaries : BT.709 Transfer characteristics : BT.709 Matrix coefficients : BT.709 Audio ID : 2 Format : MPEG Audio Format version : Version 1 Format profile : Layer 3 Mode : Joint stereo Mode extension : MS Stereo Codec ID : A_MPEG/L3 Codec ID/Hint : MP3 Duration : 1 h 35 min Bit rate mode : Constant Bit rate : 192 kb/s Channel(s) : 2 channels Sampling rate : 48.0 kHz Frame rate : 41.667 FPS (1152 spf) Compression mode : Lossy Stream size : 131 MiB (9%) Default : Yes Forced : No E N C O D E R S . N O T E S . . . SOURCE......: ViDEO...the webz ............: AUDiO...the webz SAMPLE......: Yippers ADDED NOTE..: Love Me.... Love You... well seen this on the webz one time audio was terrible. this time, >> audio seems like digital or line. video had soem green and red tint in it... got rid of the green sum >> what the red however, some scenes faces do have more of an orange/red look. nothing bad as this movie >> is worth just this, LOL!!!!! We took the ol' poo shine filters added to both audio and video. there is a watermark from some spanish >> casino site that pops up in the beg, mid and end but each time goes away. there is also some time code >> from either the capper popping it from a monitor or some kinda work print, lastly there is some latino >> subs LOL!!!! i know so much on such a small vid ffs.. anyways... this should do until better enjoy or >> don't... pass or grab sample included for QUALiTY check...
    S C R E E N . S H O T S . . .

    [​IMG]

    [​IMG]

    [​IMG]

    [​IMG]

    [​IMG]

    [​IMG]

    [​IMG]

    Mã:
    http://rapidgator.net/file/c94ed49ead35d87da6b1361ef99b4936/mech2.part1.rar.html
    http://rapidgator.net/file/424212f37849da9462980b172fa61d51/mech2.part2.rar.html
    http://uploaded.net/file/42nf8mgm/mech2.part1.rar
    http://uploaded.net/file/fnb2o7mn/mech2.part2.rar
     
  2. Đang tải...


Chia sẻ trang này