[Fshare] Megafactories Series 1080i HDTV-KhoHD - Những Siêu Nhà Máy ~ 11 tập

Thảo luận trong 'Phim tài liệu - Documentaries' bắt đầu bởi hoaitrung, 27/3/13.

  1. hoaitrung

    hoaitrung Super Moderators Thành viên BQT

    Tham gia ngày:
    13/12/09
    Bài viết:
    3,698
    Đã được cảm ơn:
    211,928
    Giới tính:
    Nam
    (Re-Up 18-08-2019)
    National Geographic
    Megafactories Series 1080i HDTV_KhoHD
    Những Siêu Nhà Máy (11 Tập - Sub Việt)


    [​IMG]


    [​IMG]
    Nhà máy sx trực thăng chiến đấu Apache.
    Megafactories-Apache.1080i.HDTV_KhoHD(Viet)


    [​IMG]
    Nhà máy chế biến sữa khổng lồ Almarai. Cung cấp các sản phẩm về sữa cho cả vùng Trung Đông
    Megafactories-Almarai.1080i.HDTV_KhoHD(Viet)


    [​IMG]
    Nhà máy Peterbilt. Nơi sản sinh những chiếc xe tải khổng lồ.
    Megafactories-Trucks.1080i.HDTV_KhoHD(Viet)


    [​IMG]
    Nhà máy sx siêu xe Ferrari.
    Megafactories-Ferrari.1080i.HDTV_KhoHD(Viet)



    [​IMG]
    Nhà máy sx thương hiệu Moto nổi tiếng Harley Davidsion
    Megafactories-Harley.Davidson.1080i.HDTV_KhoHD(Viet)





    [​IMG]
    Nhà máy Xe tăng M1 Abrams
    Megafactories-Tank.1080i.HDTV_KhoHD(Viet)



    [​IMG]
    Nhà máy John Deere. Ông trùm của các loại máy nông nghiệp
    Megafactories-John.Deere.1080i.HDTV_KhoHD(Viet)


    Media Info
    Mã:
      Complete name                            : Megafactories Series 1080i HDTV_KhoHD(Sub Việt)
    Format                                   : Matroska
    Format version                           : Version 2
    File size                                : 2.56 GiB
    Duration                                 : 44mn 49s
    Overall bit rate                         : 8 189 Kbps
    Encoded date                             : UTC 2012-11-09 02:52:51
    Writing application                      : mkvmerge v5.8.0 ('No Sleep / Pillow') built on Sep  2 2012 15:37:04
    Writing library                          : libebml v1.2.3 + libmatroska v1.3.0
    Video
    ID                                       : 1
    Format                                   : AVC
    Format/Info                              : Advanced Video Codec
    Format profile                           : [email protected]
    Format settings, CABAC                   : Yes
    Format settings, ReFrames                : 4 frames
    Muxing mode                              : Header stripping
    Codec ID                                 : V_MPEG4/ISO/AVC
    Duration                                 : 44mn 49s
    Bit rate                                 : 7 834 Kbps
    Width                                    : 1 920 pixels
    Height                                   : 1 080 pixels
    Display aspect ratio                     : 16:9
    Frame rate mode                          : Constant
    Frame rate                               : 25.000 fps
    Color space                              : YUV
    Chroma subsampling                       : 4:2:0
    Bit depth                                : 8 bits
    Scan type                                : Interlaced
    Scan order                               : Top Field First
    Bits/(Pixel*Frame)                       : 0.151
    Stream size                              : 2.45 GiB (96%)
    Default                                  : Yes
    Forced                                   : No
    Color primaries                          : BT.709
    Transfer characteristics                 : BT.709
    Matrix coefficients                      : BT.709
    Audio
    ID                                       : 2
    Format                                   : MPEG Audio
    Format version                           : Version 1
    Format profile                           : Layer 2
    Muxing mode                              : Header stripping
    Codec ID                                 : A_MPEG/L2
    Codec ID/Hint                            : MP2
    Duration                                 : 44mn 49s
    Bit rate mode                            : Constant
    Bit rate                                 : 192 Kbps
    Channel(s)                               : 2 channels
    Sampling rate                            : 48.0 KHz
    Compression mode                         : Lossy
    Stream size                              : 61.6 MiB (2%)
    Language                                 : English
    Default                                  : Yes
    Forced                                   : No  
    Các phim đều có đầy đủ phụ đề Việt ngữ
    Folder Link toàn bộ 11 tập By KhoHD
    Nhấn nút Cảm ơn (dưới chân bài) để thấy link!


    Re-up + Thêm 4 tập mới ngày 19-08-2019
    Rượu Bacardi , hãng dồ chơi Lego, Siêu xe Porsche Panamera và Boing 747






     
    Chỉnh sửa cuối: 18/8/19
    vuthuyquang, lzoo, quynhk and 177 others like this.
  2. mrquanganh

    mrquanganh New Member

    Tham gia ngày:
    3/11/12
    Bài viết:
    8
    Đã được cảm ơn:
    2
    Thanks bác, dạo này megafactories đã có phần nào mới chưa bác nhỉ?
     
  3. children09

    children09 Well-Known Member

    Tham gia ngày:
    13/4/10
    Bài viết:
    2,187
    Đã được cảm ơn:
    3,884
    Ðề: Megafactories Series 1080i HDTV_KhoHD - Những Siêu Nhà Máy (Nhiều Tập - Sub Việt)

    Mình đã xem nhà máy sản xuất sữa. Phải nói là lớn quá sức tưởng tượng, quy trình lấy sữa rất chuyên nghiệp. Cảm ơn anh Trung nhiều về bộ sưu tập này.
     
  4. vutananh

    vutananh Member

    Tham gia ngày:
    19/12/09
    Bài viết:
    73
    Đã được cảm ơn:
    21
  5. Le Sam

    Le Sam Member

    Tham gia ngày:
    27/7/19
    Bài viết:
    34
    Đã được cảm ơn:
    54
    Ad ơi, phim này còn không cho mình xin nhé!
     
  6. tuan_tekken

    tuan_tekken Active Member

    Tham gia ngày:
    19/1/10
    Bài viết:
    143
    Đã được cảm ơn:
    183
    Mình đến sau cũng hóng
     
  7. tlamhp

    tlamhp Well-Known Member

    Tham gia ngày:
    23/7/12
    Bài viết:
    1,105
    Đã được cảm ơn:
    1,087
    Giới tính:
    Nam
    Nghề nghiệp:
    Housekeeper
    Nơi ở:
    Oakland CA USA
    Cứ yên tâm mà chờ đi. Thế nào bác Hoài Trung cũng up lại mà. Đang chiến dịch IMAX nên cứ bình tĩnh.
     
  8. hoaitrung

    hoaitrung Super Moderators Thành viên BQT

    Tham gia ngày:
    13/12/09
    Bài viết:
    3,698
    Đã được cảm ơn:
    211,928
    Giới tính:
    Nam
    Re-up
    Thêm 4 tập mới ngày 19-08-2019
    Rượu Bacardi , Hãng đồ chơi Lego, Siêu xe Porsche Panamera và Boing 747

    Các tập up sau chưa cắt quảng cáo, máy tính còn quá nhiều việc không thể cài win lại lúc này để dùng soft biên tập video. Các bạn xem tạm!
     
  9. Le Sam

    Le Sam Member

    Tham gia ngày:
    27/7/19
    Bài viết:
    34
    Đã được cảm ơn:
    54
    Thank bác!
     
    vuthuyquang, ducho, hududo and 6 others like this.
  10. tranphulocson

    tranphulocson Well-Known Member

    Tham gia ngày:
    21/3/19
    Bài viết:
    856
    Đã được cảm ơn:
    935
    Giới tính:
    Nữ
    Những đề tài không thể bỏ qua! MANY THANKS! :rolleyes:
     
  11. hdbvg

    hdbvg Well-Known Member

    Tham gia ngày:
    13/3/10
    Bài viết:
    451
    Đã được cảm ơn:
    2,352
    phiền bác reup lại nha! thanks.
     
  12. hoaitrung

    hoaitrung Super Moderators Thành viên BQT

    Tham gia ngày:
    13/12/09
    Bài viết:
    3,698
    Đã được cảm ơn:
    211,928
    Giới tính:
    Nam
    vannhop cảm ơn bài này.
  13. olivervuong

    olivervuong Member

    Tham gia ngày:
    1/10/10
    Bài viết:
    133
    Đã được cảm ơn:
    9

Chia sẻ trang này