"Micheal Jackson Tribute Song Grammys 2010 3D".1080p.H264.AC3

Thảo luận trong '3D' bắt đầu bởi N-K, 18/6/10.

  1. N-K

    N-K New Member

    Tham gia ngày:
    2/3/10
    Bài viết:
    323
    Đã được cảm ơn:
    3
    Chả là hôm qua tui thấy cái intro 2010 của HDVie nên nổi máu "ngựa" làm cái này chơi cho dzui
    Cái này coi 2D hay 3D cũng đều được, nếu muốn xem 3D thì đeo kính Red-Cyan vô nhé

    Mã:
    Format                           : Matroska
    
    
    	

    File size : 656 MiB

    Duration : 6mn 53s Overall bit rate : 13.3 Mbps Encoded date : UTC 2010-06-17 21:51:05 Writing application : mkvmerge v3.4.0 ('Rapunzel') built on May 15 2010 09:38:20 Writing library : libebml v0.8.0 + libmatroska v0.9.0 Video ID : 1 Format : AVC Format/Info : Advanced Video Codec Format profile : [email protected] Format settings, CABAC : No Format settings, ReFrames : 1 frame Muxing mode : Container [email protected] Codec ID : V_MPEG4/ISO/AVC Duration : 6mn 53s Bit rate : 12.7 Mbps Width : 1 920 pixels Height : 1 080 pixels Display aspect ratio : 16:9 Frame rate : 29.970 fps Standard : NTSC Color space : YUV Chroma subsampling : 4:2:0 Bit depth : 8 bits Scan type : Progressive Bits/(Pixel*Frame) : 0.205 Stream size : 628 MiB (96%) Title : N?K Language : English Color primaries : BT.709-5, BT.1361, IEC 61966-2-4, SMPTE RP177 Transfer characteristics : BT.709-5, BT.1361 Matrix coefficients : BT.709-5, BT.1361, IEC 61966-2-4 709, SMPTE RP177 Audio ID : 2 Format : AC-3 Format/Info : Audio Coding 3 Mode extension : CM (complete main) Codec ID : A_AC3 Duration : 6mn 53s Bit rate mode : Constant Bit rate : 320 Kbps Channel(s) : 6 channels Channel positions : Front: L C R, Side: L R, LFE Sampling rate : 48.0 KHz Stream size : 15.8 MiB (2%) Title : N?K
    [DOWNLOAD]http://up.4share.vn/f/546c6c666361/Michael_Jackson_Tribute_Song_Grammys_2010_3D.mkv.file[/DOWNLOAD]​

    p/s: trình encode còn cùi pắp nên video chưa được tốt, mong các bạn thông cảm nha
     

Chia sẻ trang này