[Fshare] [Music -1link] Celine Dion : Tổng hợp các live của Celine Dion BDRip 1080p /720p x264 DTS5.1/DD5.1

Thảo luận trong 'US-EU' bắt đầu bởi laptrinhtinhyeu305, 9/6/14.

  1. laptrinhtinhyeu305

    laptrinhtinhyeu305 Well-Known Member

    Tham gia ngày:
    3/3/12
    Bài viết:
    1,522
    Đã được cảm ơn:
    996
    Giới tính:
    Nam
    Nghề nghiệp:
    Tự Do
    Nơi ở:
    HCMC
    Celine Dion - Live In Las Vegas 2007

    [​IMG]

    [​IMG]

    Mã:
    E:\Videos\Celine.Dion.A.New.Day.Live.in.Las.Vegas.2007.1080p.BluRay.DTS.5.1.x264.EuReKA.mkv
    
    
    	

    File size : 7.95 GiB

    Duration : 1h 33mn Overall bit rate : 12.2 Mbps Video ID : 1 Format : AVC Format/Info : Advanced Video Codec Format profile : [email protected] Format settings, CABAC : Yes Format settings, ReFrames : 4 frames Codec ID : V_MPEG4/ISO/AVC Bit rate : 10.7 Mbps Width : 1 920 pixels Height : 1 080 pixels Display aspect ratio : 16:9 Frame rate mode : Variable Original frame rate : 29.970 fps Color space : YUV Chroma subsampling : 4:2:0 Bit depth : 8 bits Bits/(Pixel*Frame) : 0.172 Audio ID : 2 Format : DTS Format/Info : Digital Theater Systems Codec ID : A_DTS Duration : 1h 33mn Bit rate mode : Constant Bit rate : 1 510 Kbps Channel(s) : 6 channels Channel positions : Front: L C R, Side: L R, LFE Sampling rate : 48.0 KHz Bit depth : 24 bits Stream size : 1 006 MiB (12%)
    [​IMG]

    [​IMG]



    [​IMG]


    Nhấn nút Cảm ơn (dưới chân bài) để thấy link!




    Celine Dion - Live In Las Vegas 2007 & Through the Eyes of the World 2010 ​




    [​IMG]

    [​IMG]

    Mã:
    name : E:\Videos\Celine.Dion.Through.the.Eyes.of.the.Worl d.2010.720p.BluRay.DTS.5.1.x264-AVCHD.mkv
    File size : 8.71 GiB
    Duration : 2h 53mn
    Overall bit rate : 7 195 Kbps
    Video
    ID : 1
    Format : AVC
    Format/Info : Advanced Video Codec
    Format profile : [email protected]
    Format settings, CABAC : Yes
    Format settings, ReFrames : 8 frames
    Codec ID : V_MPEG4/ISO/AVC
    Bit rate : 5 684 Kbps
    Width : 1 280 pixels
    Height : 720 pixels
    Display aspect ratio : 16:9
    Frame rate mode : Variable
    Original frame rate : 29.970 fps
    Color space : YUV
    Chroma subsampling : 4:2:0
    Bit depth : 8 bits
    Bits/(Pixel*Frame) : 0.206
    
    Audio
    ID : 2
    Format : DTS
    Format/Info : Digital Theater Systems
    Codec ID : A_DTS
    Duration : 2h 53mn
    Bit rate mode : Constant
    Bit rate : 1 510 Kbps
    Channel(s) : 6 channels
    Channel positions : Front: L C R, Side: L R, LFE
    Sampling rate : 48.0 KHz
    Bit depth : 24 bits
    Stream size : 1.83 GiB (21%)
    Title : DTS5.1 1536k
    [​IMG]

    [​IMG]

    [​IMG]

    Nhấn nút Cảm ơn (dưới chân bài) để thấy link!




    Celine Dion - Une Seule Fois Live 2013

    [​IMG]

    [​IMG]
    Mã:
    Complete name                  : E:\Celine Dion - Une Seule Fois Live 2013 Bluray 1080p AC3 5.1 x264.mkv
    Format                         : Matroska
    Format version                 : Version 4 / Version 2
    File size                      : 7.65 GiB
    Duration                       : 1h 53mn
    Overall bit rate               : 9 631 Kbps
    Encoded date                   : UTC 2014-05-17 09:21:07
    Writing application            : mkvmerge v6.8.0 ('Theme for Great Cities') 64bit built on Mar  2 2014 21:34:26
    Writing library                : libebml v1.3.0 + libmatroska v1.4.1
    
    Video
    ID                             : 1
    Format                         : AVC
    Format/Info                    : Advanced Video Codec
    Format profile                 : [email protected]
    Format settings, CABAC         : Yes
    Format settings, ReFrames      : 4 frames
    Codec ID                       : V_MPEG4/ISO/AVC
    Duration                       : 1h 53mn
    Bit rate                       : 8 993 Kbps
    Width                          : 1 920 pixels
    Height                         : 1 080 pixels
    Display aspect ratio           : 16:9
    Frame rate mode                : Constant
    Frame rate                     : 23.976 fps
    Color space                    : YUV
    Chroma subsampling             : 4:2:0
    Bit depth                      : 8 bits
    Scan type                      : Progressive
    Bits/(Pixel*Frame)             : 0.181
    Stream size                    : 6.99 GiB (91%)
    Language                       : English
    Default                        : Yes
    Forced                         : No
    
    Audio
    ID                             : 2
    Format                         : AC-3
    Format/Info                    : Audio Coding 3
    Mode extension                 : CM (complete main)
    Format settings, Endianness    : Big
    Codec ID                       : A_AC3
    Duration                       : 1h 53mn
    Bit rate mode                  : Constant
    Bit rate                       : 640 Kbps
    Channel(s)                     : 6 channels
    Channel positions              : Front: L C R, Side: L R, LFE
    Sampling rate                  : 48.0 KHz
    Bit depth                      : 16 bits
    Compression mode               : Lossy
    Stream size                    : 521 MiB (7%)
    Default                        : Yes
    Forced                         : No
    
    Menu
    00:00:00.000                   : en:00:00:00.000
    00:01:37.848                   : en:00:01:37.848
    00:05:45.554                   : en:00:05:45.554
    00:08:45.859                   : en:00:08:45.859
    00:18:12.675                   : en:00:18:12.675
    00:22:39.024                   : en:00:22:39.024
    00:25:57.639                   : en:00:25:57.639
    00:29:25.514                   : en:00:29:25.514
    00:34:19.099                   : en:00:34:19.099
    00:38:12.373                   : en:00:38:12.373
    00:42:05.982                   : en:00:42:05.982
    00:46:11.894                   : en:00:46:11.894
    00:49:53.240                   : en:00:49:53.240
    00:52:57.674                   : en:00:52:57.674
    00:56:53.785                   : en:00:56:53.785
    01:01:30.103                   : en:01:01:30.103
    01:05:47.652                   : en:01:05:47.652
    01:10:41.612                   : en:01:10:41.612
    01:16:44.391                   : en:01:16:44.391
    01:25:05.684                   : en:01:25:05.684
    01:31:12.634                   : en:01:31:12.634
    01:37:45.526                   : en:01:37:45.526
    01:43:00.424                   : en:01:43:00.424
    01:47:50.005                   : en:01:47:50.005
    Nhấn nút Cảm ơn (dưới chân bài) để thấy link!


    [​IMG]

    [​IMG][​IMG][​IMG][​IMG][​IMG][​IMG][​IMG][​IMG][​IMG][​IMG][​IMG][​IMG]



    [​IMG]

    Mã:
    [Hide]http://www.fshare.vn/file/T88R82NVWT/
    [/Hide]


    Tổng hợp Bon Jovi (music video collection) Bluray ,1080p , 720p...HDTV.
    http://www.hdvietnam.com/diendan/189-us-eu/604791-fshare-tong-hop-bon-jovi-music.html
    Boyzone -Back Again No Matter What Live 2008 Blu-ray 720p x264 DTS-SILUHD
    http://www.hdvietnam.com/diendan/33-fshare-vn/590707-music-1-link-boyzone-back-again.html
    Westlife - The Where We Are Tour Live From The O2 2010 BluRay
    http://www.hdvietnam.com/diendan/33-fshare-vn/602487-music-1link-westlife-where-we-tour.html
    Westlife The Farewell Tour Live At Croke Park 2012 Bluray Remux 1080p DTS x264
    http://www.hdvietnam.com/diendan/33-fshare-vn/642969-music-1link-westlife-farewell-tour-live.html
    http://www.hdvietnam.com/diendan/189-us-eu/588351-fshare-westlife-what-about-now-blu.html
    (Bonus Video) Take That 1080i DTS HDMA 5.1
    http://www.hdvietnam.com/diendan/189-us-eu/673301-fshare-music-tong-hop-bonus-video.html
    Celine Dion - Live In Las Vegas 2007 &Through the Eyes of the World 2010
    http://www.hdvietnam.com/diendan/33-fshare-vn/631339-fshare-music-1link-celine-dion-live.html
    Britney Spears music video Bluray collection
    http://www.hdvietnam.com/diendan/189-us-eu/770049-mv-britney-spears-hold-against-me.html
    http://www.hdvietnam.com/diendan/189-us-eu/588385-mv-britney-spears-criminal-1080p-bluray.html
    http://www.hdvietnam.com/diendan/189-us-eu/770051-mv-britney-spears-i-wanna-go.html
    Robbie Williams Live At Knebworth 2003 BluRay 720p DTS x264 - TREBLE
    http://www.hdvietnam.com/diendan/33-fshare-vn/854019-music-1link-robbie-williams-live-knebworth.html
    chúc các bác và gia đình thường thức vui vẻ.
     
    mrtran17, riankill, shange and 18 others like this.
  2. dora98

    dora98 Active Member

    Tham gia ngày:
    12/8/13
    Bài viết:
    129
    Đã được cảm ơn:
    123
    Giới tính:
    Nam
    Nghề nghiệp:
    Học sinh
    Nơi ở:
    Vietnamese
    Ðề: [Music -1link] Celine Dion : Tổng hợp các live của Celine Dion BDRip 1080p /720p x264 DTS5.1/DD5.1

    cám ơn rất nhiều
     
    quocanhcds cảm ơn bài này.
  3. florence5829

    florence5829 New Member

    Tham gia ngày:
    7/1/11
    Bài viết:
    6
    Đã được cảm ơn:
    1
    thanks very much for for ing the updated concerts for us
     
    quocanhcds cảm ơn bài này.
  4. laptrinhtinhyeu305

    laptrinhtinhyeu305 Well-Known Member

    Tham gia ngày:
    3/3/12
    Bài viết:
    1,522
    Đã được cảm ơn:
    996
    Giới tính:
    Nam
    Nghề nghiệp:
    Tự Do
    Nơi ở:
    HCMC
    Ðề: Re: [Music -1link] Celine Dion : Tổng hợp các live của Celine Dion BDRip 1080p /720p x264 DTS5.1/DD5.1

    cám ơn cậu đã quan tâm, chúc vui vẻ.
     
    quocanhcds cảm ơn bài này.
  5. HDCafé

    HDCafé New Member

    Tham gia ngày:
    26/11/09
    Bài viết:
    356
    Đã được cảm ơn:
    6
    Ðề: [Music -1link] Celine Dion : Tổng hợp các live của Celine Dion BDRip 1080p /720p x264 DTS5.1/DD5.1

    Rất hay! Cảm ơn bác chủ topic!
     
  6. nmtuan_pnt

    nmtuan_pnt Member

    Tham gia ngày:
    9/7/13
    Bài viết:
    32
    Đã được cảm ơn:
    1
    Cám ơn chủ topic nha
     
  7. sfgfsgfg

    sfgfsgfg Banned

    Tham gia ngày:
    14/2/15
    Bài viết:
    1
    Đã được cảm ơn:
    0
    Ðề: [Music -1link] Celine Dion : Tổng hợp các live của Celine Dion BDRip 1080p /720p x264 DTS5.1/DD5.1

    NHÀ HÀNG ẨM THỰC NGON BÌNH DƯƠNG - AMTHUCPG.VN

    [​IMG]

    [​IMG]

    [​IMG]

    CÔNG TY TNHH MỘT THÀNH VIÊN ẨM THỰC PG
    ĐỊA CHỈ : 1072 ĐƯỜNG CÁCH MẠNG THÁNG TÁM, PHƯỜNG PHÚ THỌ,THÀNH PHỐ THỦ DẦU MỘT, TỈNH BÌNH DƯƠNG
    MÃ SỐ THUẾ: 3702314884
    ĐIỆN THOẠI : (0650) 3901874 – 3901875 – HOTLINE: 0974 554411
    Website: amthucpg.com – amthucpg.com.vn – Email: [email protected]
    Copyright © 2014 AmThucPG.Vn Designed by thietkewebchuyen.com
     
  8. dktdh20

    dktdh20 New Member

    Tham gia ngày:
    15/1/14
    Bài viết:
    12
    Đã được cảm ơn:
    7
    Ðề: [Music -1link] Celine Dion : Tổng hợp các live của Celine Dion BDRip 1080p /720p x264 DTS5.1/DD5.1

    Tuyệt vời, đúng cái mình đang đi tìm...
    TKS chủ thớt...!!!
     

Chia sẻ trang này