[Other] [MV] Backstreet Boys - Incomplete (1080p.HDTV.AVC.AC-3.Slim)

Thảo luận trong 'US-EU' bắt đầu bởi ilovemusic1991, 12/12/13.

  1. ilovemusic1991

    ilovemusic1991 Well-Known Member

    Tham gia ngày:
    10/10/11
    Bài viết:
    697
    Đã được cảm ơn:
    1,532
    Giới tính:
    Nam
    View attachment 136965
    Mã:
    F:\DOWNLOADED\US\Backstreet Boys - Incomplete.ts
      General #1
    
    
    	

    ID : 1 (0x1)

    Complete name : F:\DOWNLOADED\US\Backstreet Boys - Incomplete.ts Format : MPEG-TS File size : 257 MiB Duration : 3mn 53s Overall bit rate mode : Variable Overall bit rate : 9 206 Kbps Video #5408 ID : 5408 (0x1520) Menu ID : 1 (0x1) Format : AVC Format/Info : Advanced Video Codec Format profile : [email protected] Format settings, CABAC : Yes Format settings, ReFrames : 2 frames Codec ID : 27 Duration : 3mn 53s Bit rate : 8 363 Kbps Width : 1 920 pixels Height : 1 080 pixels Display aspect ratio : 16:9 Frame rate : 29.970 fps Color space : YUV Chroma subsampling : 4:2:0 Bit depth : 8 bits Scan type : MBAFF Bits/(Pixel*Frame) : 0.135 Stream size : 233 MiB (91%) Color primaries : BT.709 Transfer characteristics : BT.709 Matrix coefficients : BT.709 Audio #5410 ID : 5410 (0x1522) Menu ID : 1 (0x1) Format : AC-3 Format/Info : Audio Coding 3 Mode extension : CM (complete main) Format settings, Endianness : Big Codec ID : 129 Duration : 3mn 53s Bit rate mode : Constant Bit rate : 384 Kbps Channel(s) : 2 channels Channel positions : Front: L R Sampling rate : 48.0 KHz Bit depth : 16 bits Compression mode : Lossy Stream size : 10.7 MiB (4%) Language : English
    Link tải phim
    Nhấn nút Cảm ơn (dưới chân bài) để thấy link!
     
  2. Đang tải...


Chia sẻ trang này