[MV] Backstreet Boys: Video Hits Collection [HD-Upscale-DTC]

Thảo luận trong 'US-EU' bắt đầu bởi dtancanh, 13/9/12.

  1. dtancanh

    dtancanh Well-Known Member

    Tham gia ngày:
    21/2/12
    Bài viết:
    384
    Đã được cảm ơn:
    762
    Nghề nghiệp:
    Học Sinh
    Nơi ở:
    Việt Nam
    Backstreet Boys: Video Hits Collection


    Backstreet Boys là một ban nhạc của Hoa Kỳ đã từng được đề cử giải Grammy. Lần trình diễn đầu tiên của nhóm là vào tháng 7 năm 1997. Backstreet Boys đã từng đứng thứ 12 trong top 40 của bảng xếp hạng Billboard Hot 100 của Mỹ, và bán được trên 130 triệu album trên toàn thế giới riêng tại Mỹ là 38 triệu album, là ban nhạc nam bán được nhiều album nhất thế giới và kiếm được nhiều tiền nhất thế giới từ năm 1997 đến 2005 (khoảng 533,1 triệu USD.
    Sau khi trở lại với thế giới âm nhạc năm 2005, phong cách hát của họ thay đổi thành nhạc kịch kết hợp với các nhạc cụ âm nhạc (có một vài bài thành viên của nhóm tự chơi) và âm thanh guitar của nhạc pop rock. Hiện tại nhóm có bốn thành viên là Nick Carter, Howie Dorough, Brian Littrell, và A. J. McLean. Một thành viên chính thức là Kevin Richardson đã rời nhóm vào ngày 23 tháng 6 năm 2006, nhưng bốn thành viên còn lại vẫn quyết định quay trở lại với ca hát.
    Backstreet Boys đã bán hơn 130 triệu đĩa nhạc trên toàn thế giới và trở thành ban nhạc có lượng đĩa bán chạy nhất mọi thời đại. Theo Billboard, họ là ban nhạc đầu tiên sau ban Shade có 7 album đầu tiên lọt vào top 10 trên Billboard 200.
    Theo Wikipedia​
    Source: DVD
    Upscale by DTC


    List:

    1. We got it going on
    2. Anywhere for you
    3. Get down(You're the one for me)
    4. I'll never break yor heart
    5. Quit playing games with my heart
    6. Backstreet Boys Everybody ( Backstreet's back)
    7. As long as you love me
    8. All I have to Give
    9. Helpless When She Smiles
    10. I Want It That Way
    11. Larger than life
    12. Drowning
    13. Incomplete
    14. Inconsolable
    15. The Call
     
    Chỉnh sửa cuối: 14/10/12
  2. Đang tải...


  3. dtancanh

    dtancanh Well-Known Member

    Tham gia ngày:
    21/2/12
    Bài viết:
    384
    Đã được cảm ơn:
    762
    Nghề nghiệp:
    Học Sinh
    Nơi ở:
    Việt Nam
    Ðề: [MV] Backstreet Boys: Video Hits Collection [HD-Upscale-DTC]

    [MV] Backstreet Boys - We've Got It Goin' On [HD-720p]

    [​IMG]
    INFORMATION

    Mã:
    General
    Unique ID                      : 249689120656514073437954172244077548359 (0xBBD8601BEB42259A9B9BA82ABA1B9347)
    Complete name                  : Backstreet Boys - We've Got It Goin' On [UP-720p][x264][AC3][DTC].mkv
    Format                         : Matroska
    Format version                 : Version 2
    File size                      : 156 MiB
    Duration                       : 4mn 10s
    Overall bit rate               : 5 234 Kbps
    Encoded date                   : UTC 2012-09-11 03:21:43
    Writing application            : mkvmerge v5.6.0 ('Kenya Kane') built on May 27 2012 16:44:04
    Writing library                : libebml v1.2.3 + libmatroska v1.3.0
    
    Video
    ID                             : 1
    Format                         : AVC
    Format/Info                    : Advanced Video Codec
    Format profile                 : [email protected]
    Format settings, CABAC         : Yes
    Format settings, ReFrames      : 4 frames
    Codec ID                       : V_MPEG4/ISO/AVC
    Duration                       : 4mn 10s
    Bit rate                       : 5 000 Kbps
    Width                          : 1 280 pixels
    Height                         : 720 pixels
    Display aspect ratio           : 16:9
    Frame rate mode                : Constant
    Frame rate                     : 23.976 fps
    Color space                    : YUV
    Chroma subsampling             : 4:2:0
    Bit depth                      : 8 bits
    Scan type                      : Progressive
    Bits/(Pixel*Frame)             : 0.226
    Stream size                    : 146 MiB (94%)
    Writing library                : x264 core 125 r2200 999b753
    Encoding settings              : cabac=1 / ref=3 / deblock=1:0:0 / analyse=0x3:0x113 / me=hex / subme=7 / psy=1 / psy_rd=1.00:0.00 / mixed_ref=1 / me_range=16 / chroma_me=1 / trellis=1 / 8x8dct=1 / cqm=0 / deadzone=21,11 / fast_pskip=1 / chroma_qp_offset=-2 / threads=3 / lookahead_threads=1 / sliced_threads=0 / nr=0 / decimate=1 / interlaced=0 / bluray_compat=0 / constrained_intra=0 / bframes=3 / b_pyramid=2 / b_adapt=1 / b_bias=0 / direct=1 / weightb=1 / open_gop=0 / weightp=2 / keyint=240 / keyint_min=23 / scenecut=40 / intra_refresh=0 / rc_lookahead=40 / rc=2pass / mbtree=1 / bitrate=5000 / ratetol=1.0 / qcomp=0.60 / qpmin=0 / qpmax=69 / qpstep=4 / cplxblur=20.0 / qblur=0.5 / ip_ratio=1.40 / aq=1:1.00
    Language                       : English
    Default                        : Yes
    Forced                         : No
    
    Audio
    ID                             : 2
    Format                         : AC-3
    Format/Info                    : Audio Coding 3
    Mode extension                 : CM (complete main)
    Format settings, Endianness    : Big
    Codec ID                       : A_AC3
    Duration                       : 4mn 10s
    Bit rate mode                  : Constant
    Bit rate                       : 224 Kbps
    Channel(s)                     : 2 channels
    Channel positions              : Front: L R
    Sampling rate                  : 48.0 KHz
    Bit depth                      : 16 bits
    Compression mode               : Lossy
    Stream size                    : 6.68 MiB (4%)
    Default                        : Yes
    Forced                         : No
    
    
    Link:
    Link tải phim
    Nhấn nút Cảm ơn (dưới chân bài) để thấy link!
     
    Chỉnh sửa cuối: 25/9/12
  4. Gjnuarc

    Gjnuarc New Member

    Tham gia ngày:
    12/9/12
    Bài viết:
    100
    Đã được cảm ơn:
    6
    Hàng chất lượng!
     
    HuuHai and pp_net2000 like this.
  5. dtancanh

    dtancanh Well-Known Member

    Tham gia ngày:
    21/2/12
    Bài viết:
    384
    Đã được cảm ơn:
    762
    Nghề nghiệp:
    Học Sinh
    Nơi ở:
    Việt Nam
    Ðề: [MV] Backstreet Boys: Video Hits Collection [HD-Upscale-DTC]

    [MV] Backstreet Boys - Anywhere For You [HD-720p]

    [​IMG]
    INFORMATION

    Mã:
    General
    Unique ID                      : 222413479521836536445251297894789776110 (0xA753472C9F8B05E4B05562F45B9382EE)
    Complete name                  : Backstreet Boys - Anywhere For You [UP-720p][x264][AC3][DTC].mkv
    Format                         : Matroska
    Format version                 : Version 2
    File size                      : 160 MiB
    Duration                       : 4mn 17s
    Overall bit rate               : 5 229 Kbps
    Encoded date                   : UTC 2012-09-11 10:19:03
    Writing application            : mkvmerge v5.6.0 ('Kenya Kane') built on May 27 2012 16:44:04
    Writing library                : libebml v1.2.3 + libmatroska v1.3.0
    
    Video
    ID                             : 1
    Format                         : AVC
    Format/Info                    : Advanced Video Codec
    Format profile                 : [email protected]
    Format settings, CABAC         : Yes
    Format settings, ReFrames      : 4 frames
    Codec ID                       : V_MPEG4/ISO/AVC
    Duration                       : 4mn 17s
    Bit rate                       : 5 000 Kbps
    Width                          : 1 280 pixels
    Height                         : 640 pixels
    Display aspect ratio           : 2.000
    Frame rate mode                : Constant
    Frame rate                     : 23.976 fps
    Color space                    : YUV
    Chroma subsampling             : 4:2:0
    Bit depth                      : 8 bits
    Scan type                      : Progressive
    Bits/(Pixel*Frame)             : 0.255
    Stream size                    : 150 MiB (94%)
    Writing library                : x264 core 125 r2200 999b753
    Encoding settings              : cabac=1 / ref=3 / deblock=1:0:0 / analyse=0x3:0x113 / me=hex / subme=7 / psy=1 / psy_rd=1.00:0.00 / mixed_ref=1 / me_range=16 / chroma_me=1 / trellis=1 / 8x8dct=1 / cqm=0 / deadzone=21,11 / fast_pskip=1 / chroma_qp_offset=-2 / threads=3 / lookahead_threads=1 / sliced_threads=0 / nr=0 / decimate=1 / interlaced=0 / bluray_compat=0 / constrained_intra=0 / bframes=3 / b_pyramid=2 / b_adapt=1 / b_bias=0 / direct=1 / weightb=1 / open_gop=0 / weightp=2 / keyint=240 / keyint_min=23 / scenecut=40 / intra_refresh=0 / rc_lookahead=40 / rc=2pass / mbtree=1 / bitrate=5000 / ratetol=1.0 / qcomp=0.60 / qpmin=0 / qpmax=69 / qpstep=4 / cplxblur=20.0 / qblur=0.5 / ip_ratio=1.40 / aq=1:1.00
    Language                       : English
    Default                        : Yes
    Forced                         : No
    
    Audio
    ID                             : 2
    Format                         : AC-3
    Format/Info                    : Audio Coding 3
    Mode extension                 : CM (complete main)
    Format settings, Endianness    : Big
    Codec ID                       : A_AC3
    Duration                       : 4mn 17s
    Bit rate mode                  : Constant
    Bit rate                       : 224 Kbps
    Channel(s)                     : 2 channels
    Channel positions              : Front: L R
    Sampling rate                  : 48.0 KHz
    Bit depth                      : 16 bits
    Compression mode               : Lossy
    Stream size                    : 6.87 MiB (4%)
    Default                        : Yes
    Forced                         : No
    
    
    Link:
    Link tải phim
    Nhấn nút Cảm ơn (dưới chân bài) để thấy link!
     
    Chỉnh sửa cuối: 12/10/12
  6. dtancanh

    dtancanh Well-Known Member

    Tham gia ngày:
    21/2/12
    Bài viết:
    384
    Đã được cảm ơn:
    762
    Nghề nghiệp:
    Học Sinh
    Nơi ở:
    Việt Nam
    Ðề: [MV] Backstreet Boys: Video Hits Collection [HD-Upscale-DTC]

    [MV] Backstreet Boys - Get Down (You're The One For Me) [HD-720p]


    [​IMG]
    INFORMATION


    Mã:
    General
    Unique ID                      : 253498218257495904496868641167018249237 (0xBEB5FB1ED30890EBAE3E89B633274C15)
    Complete name                  : Backstreet Boys - Get Down (You're The One For Me) [UP-720p][x264][AC3][DTC].mkv
    Format                         : Matroska
    Format version                 : Version 2
    File size                      : 145 MiB
    Duration                       : 3mn 53s
    Overall bit rate               : 5 229 Kbps
    Encoded date                   : UTC 2012-09-12 02:21:25
    Writing application            : mkvmerge v5.6.0 ('Kenya Kane') built on May 27 2012 16:44:04
    Writing library                : libebml v1.2.3 + libmatroska v1.3.0
    
    Video
    ID                             : 1
    Format                         : AVC
    Format/Info                    : Advanced Video Codec
    Format profile                 : [email protected]
    Format settings, CABAC         : Yes
    Format settings, ReFrames      : 4 frames
    Codec ID                       : V_MPEG4/ISO/AVC
    Duration                       : 3mn 53s
    Bit rate                       : 5 000 Kbps
    Width                          : 1 280 pixels
    Height                         : 720 pixels
    Display aspect ratio           : 16:9
    Frame rate mode                : Constant
    Frame rate                     : 29.970 fps
    Color space                    : YUV
    Chroma subsampling             : 4:2:0
    Bit depth                      : 8 bits
    Scan type                      : Progressive
    Bits/(Pixel*Frame)             : 0.181
    Stream size                    : 136 MiB (94%)
    Writing library                : x264 core 125 r2200 999b753
    Encoding settings              : cabac=1 / ref=3 / deblock=1:0:0 / analyse=0x3:0x113 / me=hex / subme=7 / psy=1 / psy_rd=1.00:0.00 / mixed_ref=1 / me_range=16 / chroma_me=1 / trellis=1 / 8x8dct=1 / cqm=0 / deadzone=21,11 / fast_pskip=1 / chroma_qp_offset=-2 / threads=3 / lookahead_threads=1 / sliced_threads=0 / nr=0 / decimate=1 / interlaced=0 / bluray_compat=0 / constrained_intra=0 / bframes=3 / b_pyramid=2 / b_adapt=1 / b_bias=0 / direct=1 / weightb=1 / open_gop=0 / weightp=2 / keyint=300 / keyint_min=29 / scenecut=40 / intra_refresh=0 / rc_lookahead=40 / rc=2pass / mbtree=1 / bitrate=5000 / ratetol=1.0 / qcomp=0.60 / qpmin=0 / qpmax=69 / qpstep=4 / cplxblur=20.0 / qblur=0.5 / ip_ratio=1.40 / aq=1:1.00
    Language                       : English
    Default                        : Yes
    Forced                         : No
    
    Audio
    ID                             : 2
    Format                         : AC-3
    Format/Info                    : Audio Coding 3
    Mode extension                 : CM (complete main)
    Format settings, Endianness    : Big
    Codec ID                       : A_AC3
    Duration                       : 3mn 53s
    Bit rate mode                  : Constant
    Bit rate                       : 224 Kbps
    Channel(s)                     : 2 channels
    Channel positions              : Front: L R
    Sampling rate                  : 48.0 KHz
    Bit depth                      : 16 bits
    Compression mode               : Lossy
    Stream size                    : 6.23 MiB (4%)
    Default                        : Yes
    Forced                         : No
    
    
    Link:
    Link tải phim
    Nhấn nút Cảm ơn (dưới chân bài) để thấy link!
     
    Chỉnh sửa cuối: 25/9/12
  7. dtancanh

    dtancanh Well-Known Member

    Tham gia ngày:
    21/2/12
    Bài viết:
    384
    Đã được cảm ơn:
    762
    Nghề nghiệp:
    Học Sinh
    Nơi ở:
    Việt Nam
    Ðề: [MV] Backstreet Boys: Video Hits Collection [HD-Upscale-DTC]

    [MV] Backstreet Boys - I'll Never Break Your Heart [mHD-720p]


    [​IMG]
    INFORMATION


    Mã:
    General
    Unique ID                      : 196570758096704590017018413655120272033 (0x93E226A2C11D20938C829F839ED9DAA1)
    Complete name                  : Backstreet Boys - I'll Never Break Your Heart [UP-720p][x264][AC3][DTC].mkv
    Format                         : Matroska
    Format version                 : Version 2
    File size                      : 142 MiB
    Duration                       : 4mn 40s
    Overall bit rate               : 4 227 Kbps
    Encoded date                   : UTC 2012-09-12 09:59:04
    Writing application            : mkvmerge v5.6.0 ('Kenya Kane') built on May 27 2012 16:44:04
    Writing library                : libebml v1.2.3 + libmatroska v1.3.0
    
    Video
    ID                             : 1
    Format                         : AVC
    Format/Info                    : Advanced Video Codec
    Format profile                 : [email protected]
    Format settings, CABAC         : Yes
    Format settings, ReFrames      : 4 frames
    Codec ID                       : V_MPEG4/ISO/AVC
    Duration                       : 4mn 40s
    Bit rate                       : 4 000 Kbps
    Width                          : 944 pixels
    Height                         : 720 pixels
    Display aspect ratio           : 4:3
    Frame rate mode                : Constant
    Frame rate                     : 23.976 fps
    Color space                    : YUV
    Chroma subsampling             : 4:2:0
    Bit depth                      : 8 bits
    Scan type                      : Progressive
    Bits/(Pixel*Frame)             : 0.245
    Stream size                    : 131 MiB (93%)
    Writing library                : x264 core 125 r2200 999b753
    Encoding settings              : cabac=1 / ref=3 / deblock=1:0:0 / analyse=0x3:0x113 / me=hex / subme=7 / psy=1 / psy_rd=1.00:0.00 / mixed_ref=1 / me_range=16 / chroma_me=1 / trellis=1 / 8x8dct=1 / cqm=0 / deadzone=21,11 / fast_pskip=1 / chroma_qp_offset=-2 / threads=3 / lookahead_threads=1 / sliced_threads=0 / nr=0 / decimate=1 / interlaced=0 / bluray_compat=0 / constrained_intra=0 / bframes=3 / b_pyramid=2 / b_adapt=1 / b_bias=0 / direct=1 / weightb=1 / open_gop=0 / weightp=2 / keyint=240 / keyint_min=23 / scenecut=40 / intra_refresh=0 / rc_lookahead=40 / rc=2pass / mbtree=1 / bitrate=4000 / ratetol=1.0 / qcomp=0.60 / qpmin=0 / qpmax=69 / qpstep=4 / cplxblur=20.0 / qblur=0.5 / ip_ratio=1.40 / aq=1:1.00
    Language                       : English
    Default                        : Yes
    Forced                         : No
    
    Audio
    ID                             : 2
    Format                         : AC-3
    Format/Info                    : Audio Coding 3
    Mode extension                 : CM (complete main)
    Format settings, Endianness    : Big
    Codec ID                       : A_AC3
    Duration                       : 4mn 40s
    Bit rate mode                  : Constant
    Bit rate                       : 224 Kbps
    Channel(s)                     : 2 channels
    Channel positions              : Front: L R
    Sampling rate                  : 48.0 KHz
    Bit depth                      : 16 bits
    Compression mode               : Lossy
    Stream size                    : 7.50 MiB (5%)
    Default                        : Yes
    Forced                         : No
    
    
    Link:
    Link tải phim
    Nhấn nút Cảm ơn (dưới chân bài) để thấy link!
     
    Chỉnh sửa cuối: 25/9/12
  8. dtancanh

    dtancanh Well-Known Member

    Tham gia ngày:
    21/2/12
    Bài viết:
    384
    Đã được cảm ơn:
    762
    Nghề nghiệp:
    Học Sinh
    Nơi ở:
    Việt Nam
    Ðề: [MV] Backstreet Boys: Video Hits Collection [HD-Upscale-DTC]

    [MV] Backstreet Boys - Quit Playing Games (With My Heart) [mHD-720p]


    [​IMG]
    INFORMATION


    Mã:
    General
    Unique ID                      : 229376353099003044966335464436434123947 (0xAC904758ABECE813A83025656A46BCAB)
    Complete name                  : Backstreet Boys - Quit Playing Games (With My Heart) [UP-720p][x264][AC3][DTC].mkv
    Format                         : Matroska
    Format version                 : Version 2
    File size                      : 118 MiB
    Duration                       : 3mn 53s
    Overall bit rate               : 4 230 Kbps
    Encoded date                   : UTC 2012-09-13 09:40:50
    Writing application            : mkvmerge v5.6.0 ('Kenya Kane') built on May 27 2012 16:44:04
    Writing library                : libebml v1.2.3 + libmatroska v1.3.0
    
    Video
    ID                             : 1
    Format                         : AVC
    Format/Info                    : Advanced Video Codec
    Format profile                 : [email protected]
    Format settings, CABAC         : Yes
    Format settings, ReFrames      : 4 frames
    Codec ID                       : V_MPEG4/ISO/AVC
    Bit rate                       : 4 000 Kbps
    Width                          : 944 pixels
    Height                         : 720 pixels
    Display aspect ratio           : 4:3
    Frame rate mode                : Variable
    Original frame rate            : 23.976 fps
    Color space                    : YUV
    Chroma subsampling             : 4:2:0
    Bit depth                      : 8 bits
    Scan type                      : Progressive
    Bits/(Pixel*Frame)             : 0.245
    Writing library                : x264 core 125 r2200 999b753
    Encoding settings              : cabac=1 / ref=3 / deblock=1:0:0 / analyse=0x3:0x113 / me=hex / subme=7 / psy=1 / psy_rd=1.00:0.00 / mixed_ref=1 / me_range=16 / chroma_me=1 / trellis=1 / 8x8dct=1 / cqm=0 / deadzone=21,11 / fast_pskip=1 / chroma_qp_offset=-2 / threads=3 / lookahead_threads=1 / sliced_threads=0 / nr=0 / decimate=1 / interlaced=0 / bluray_compat=0 / constrained_intra=0 / bframes=3 / b_pyramid=2 / b_adapt=1 / b_bias=0 / direct=1 / weightb=1 / open_gop=0 / weightp=2 / keyint=240 / keyint_min=23 / scenecut=40 / intra_refresh=0 / rc_lookahead=40 / rc=2pass / mbtree=1 / bitrate=4000 / ratetol=1.0 / qcomp=0.60 / qpmin=0 / qpmax=69 / qpstep=4 / cplxblur=20.0 / qblur=0.5 / ip_ratio=1.40 / aq=1:1.00
    Language                       : English
    Default                        : Yes
    Forced                         : No
    
    Audio
    ID                             : 2
    Format                         : AC-3
    Format/Info                    : Audio Coding 3
    Mode extension                 : CM (complete main)
    Format settings, Endianness    : Big
    Codec ID                       : A_AC3
    Duration                       : 3mn 53s
    Bit rate mode                  : Constant
    Bit rate                       : 224 Kbps
    Channel(s)                     : 2 channels
    Channel positions              : Front: L R
    Sampling rate                  : 48.0 KHz
    Bit depth                      : 16 bits
    Compression mode               : Lossy
    Stream size                    : 6.24 MiB (5%)
    Default                        : Yes
    Forced                         : No
    
    
    Link:
    Link tải phim
    Nhấn nút Cảm ơn (dưới chân bài) để thấy link!
     
    Chỉnh sửa cuối: 25/9/12
  9. dtancanh

    dtancanh Well-Known Member

    Tham gia ngày:
    21/2/12
    Bài viết:
    384
    Đã được cảm ơn:
    762
    Nghề nghiệp:
    Học Sinh
    Nơi ở:
    Việt Nam
    Ðề: [MV] Backstreet Boys: Video Hits Collection [HD-Upscale-DTC]

    [MV] Backstreet Boys Everybody ( Backstreet's back) [HD-720p]


    [​IMG]
    INFORMATION

    Mã:
    General
    Unique ID                      : 179441121346697231904393312833952319510 (0x86FF1A56B5FB2FC3B60A11526DD48816)
    Complete name                  : Backstreet Boys - Everybody ( Backstreet's back) [UP-720p][x264][AC3][DTC].mkv
    Format                         : Matroska
    Format version                 : Version 2
    File size                      : 188 MiB
    Duration                       : 5mn 1s
    Overall bit rate               : 5 227 Kbps
    Encoded date                   : UTC 2012-09-14 13:17:06
    Writing application            : mkvmerge v5.6.0 ('Kenya Kane') built on May 27 2012 16:44:04
    Writing library                : libebml v1.2.3 + libmatroska v1.3.0
    
    Video
    ID                             : 1
    Format                         : AVC
    Format/Info                    : Advanced Video Codec
    Format profile                 : [email protected]
    Format settings, CABAC         : Yes
    Format settings, ReFrames      : 4 frames
    Codec ID                       : V_MPEG4/ISO/AVC
    Duration                       : 5mn 1s
    Bit rate                       : 5 000 Kbps
    Width                          : 1 280 pixels
    Height                         : 640 pixels
    Display aspect ratio           : 2.000
    Frame rate mode                : Constant
    Frame rate                     : 23.976 fps
    Color space                    : YUV
    Chroma subsampling             : 4:2:0
    Bit depth                      : 8 bits
    Scan type                      : Progressive
    Bits/(Pixel*Frame)             : 0.255
    Stream size                    : 176 MiB (94%)
    Writing library                : x264 core 125 r2200 999b753
    Encoding settings              : cabac=1 / ref=3 / deblock=1:0:0 / analyse=0x3:0x113 / me=hex / subme=7 / psy=1 / psy_rd=1.00:0.00 / mixed_ref=1 / me_range=16 / chroma_me=1 / trellis=1 / 8x8dct=1 / cqm=0 / deadzone=21,11 / fast_pskip=1 / chroma_qp_offset=-2 / threads=3 / lookahead_threads=1 / sliced_threads=0 / nr=0 / decimate=1 / interlaced=0 / bluray_compat=0 / constrained_intra=0 / bframes=3 / b_pyramid=2 / b_adapt=1 / b_bias=0 / direct=1 / weightb=1 / open_gop=0 / weightp=2 / keyint=240 / keyint_min=23 / scenecut=40 / intra_refresh=0 / rc_lookahead=40 / rc=2pass / mbtree=1 / bitrate=5000 / ratetol=1.0 / qcomp=0.60 / qpmin=0 / qpmax=69 / qpstep=4 / cplxblur=20.0 / qblur=0.5 / ip_ratio=1.40 / aq=1:1.00
    Language                       : English
    Default                        : Yes
    Forced                         : No
    
    Audio
    ID                             : 2
    Format                         : AC-3
    Format/Info                    : Audio Coding 3
    Mode extension                 : CM (complete main)
    Format settings, Endianness    : Big
    Codec ID                       : A_AC3
    Duration                       : 5mn 1s
    Bit rate mode                  : Constant
    Bit rate                       : 224 Kbps
    Channel(s)                     : 2 channels
    Channel positions              : Front: L R
    Sampling rate                  : 48.0 KHz
    Bit depth                      : 16 bits
    Compression mode               : Lossy
    Stream size                    : 8.06 MiB (4%)
    Default                        : Yes
    Forced                         : No
    
    
    Link:
    Link tải phim
    Nhấn nút Cảm ơn (dưới chân bài) để thấy link!
     
    Chỉnh sửa cuối: 25/9/12
    pianoman, hungttx, riz786 and 31 others like this.
  10. lemanhchuc

    lemanhchuc Well-Known Member

    Tham gia ngày:
    5/11/10
    Bài viết:
    593
    Đã được cảm ơn:
    421
    Góp ý e tí, vì DVD Up lên nên đừng để bitrate cao lắm cỡ từ 4000-4500 là ok, vì Upscale thì nó cũng đâu có "chi tiết" thêm như HD bình thường :)
     
  11. dtancanh

    dtancanh Well-Known Member

    Tham gia ngày:
    21/2/12
    Bài viết:
    384
    Đã được cảm ơn:
    762
    Nghề nghiệp:
    Học Sinh
    Nơi ở:
    Việt Nam
    Ðề: Re: [MV] Backstreet Boys: Video Hits Collection [HD-Upscale-DTC]

    thanks anh :) :) :)
     
    Alios2012, haobodoi, linux23 and 6 others like this.
  12. dtancanh

    dtancanh Well-Known Member

    Tham gia ngày:
    21/2/12
    Bài viết:
    384
    Đã được cảm ơn:
    762
    Nghề nghiệp:
    Học Sinh
    Nơi ở:
    Việt Nam
    Ðề: [MV] Backstreet Boys: Video Hits Collection [HD-Upscale-DTC]

    [MV] Backstreet Boys - As Long As You Love Me [mHD-720p]

    [​IMG]
    INFORMATION

    Mã:
    General
    Unique ID                      : 231281442444599562287764480593540698022 (0xADFF2F80C33FAE2DA824705AA3084FA6)
    Complete name                  : Backstreet Boys - As Long As You Love Me [UP-720p][x264][FLAC][DTC].mkv
    Format                         : Matroska
    Format version                 : Version 2
    File size                      : 128 MiB
    Duration                       : 3mn 35s
    Overall bit rate mode          : Variable
    Overall bit rate               : 4 986 Kbps
    Encoded date                   : UTC 2012-09-15 10:36:07
    Writing application            : mkvmerge v5.6.0 ('Kenya Kane') built on May 27 2012 16:44:04
    Writing library                : libebml v1.2.3 + libmatroska v1.3.0
    
    Video
    ID                             : 1
    Format                         : AVC
    Format/Info                    : Advanced Video Codec
    Format profile                 : [email protected]
    Format settings, CABAC         : Yes
    Format settings, ReFrames      : 4 frames
    Codec ID                       : V_MPEG4/ISO/AVC
    Duration                       : 3mn 35s
    Nominal bit rate               : 4 000 Kbps
    Width                          : 960 pixels
    Height                         : 720 pixels
    Display aspect ratio           : 4:3
    Frame rate mode                : Constant
    Frame rate                     : 29.970 fps
    Color space                    : YUV
    Chroma subsampling             : 4:2:0
    Bit depth                      : 8 bits
    Scan type                      : Progressive
    Bits/(Pixel*Frame)             : 0.193
    Writing library                : x264 core 125 r2200 999b753
    Encoding settings              : cabac=1 / ref=3 / deblock=1:0:0 / analyse=0x3:0x113 / me=hex / subme=7 / psy=1 / psy_rd=1.00:0.00 / mixed_ref=1 / me_range=16 / chroma_me=1 / trellis=1 / 8x8dct=1 / cqm=0 / deadzone=21,11 / fast_pskip=1 / chroma_qp_offset=-2 / threads=3 / lookahead_threads=1 / sliced_threads=0 / nr=0 / decimate=1 / interlaced=0 / bluray_compat=0 / constrained_intra=0 / bframes=3 / b_pyramid=2 / b_adapt=1 / b_bias=0 / direct=1 / weightb=1 / open_gop=0 / weightp=2 / keyint=300 / keyint_min=29 / scenecut=40 / intra_refresh=0 / rc_lookahead=40 / rc=2pass / mbtree=1 / bitrate=4000 / ratetol=1.0 / qcomp=0.60 / qpmin=0 / qpmax=69 / qpstep=4 / cplxblur=20.0 / qblur=0.5 / ip_ratio=1.40 / aq=1:1.00
    Language                       : English
    Default                        : Yes
    Forced                         : No
    
    Audio
    ID                             : 2
    Format                         : FLAC
    Format/Info                    : Free Lossless Audio Codec
    Codec ID                       : A_FLAC
    Duration                       : 3mn 35s
    Bit rate mode                  : Variable
    Channel(s)                     : 2 channels
    Sampling rate                  : 48.0 KHz
    Bit depth                      : 16 bits
    Writing library                : libFLAC 1.2.1 (UTC 2007-09-17)
    Default                        : Yes
    Forced                         : No
    
    
    Link:
    Link tải phim
    Nhấn nút Cảm ơn (dưới chân bài) để thấy link!
     
    Chỉnh sửa cuối: 25/9/12
  13. davidbeckham_nd

    davidbeckham_nd Well-Known Member

    Tham gia ngày:
    5/7/12
    Bài viết:
    2,719
    Đã được cảm ơn:
    717
    Nghề nghiệp:
    Import & Export
    Nơi ở:
    Hanoi, Vietnam, Vietnam
    Cảm ơn chủ thớt nhé.Bác sưu tâm thêm và chia sẻ mọi người nha
     
    Alios2012 and pp_net2000 like this.
  14. dtancanh

    dtancanh Well-Known Member

    Tham gia ngày:
    21/2/12
    Bài viết:
    384
    Đã được cảm ơn:
    762
    Nghề nghiệp:
    Học Sinh
    Nơi ở:
    Việt Nam
    Ðề: [MV] Backstreet Boys: Video Hits Collection [HD-Upscale-DTC]

    [MV] Back Street Boys - All I have to Give [mHD-720p]

    [​IMG]
    INFORMATION

    Mã:
    General
    Unique ID                      : 208138806814554789968924916877348904249 (0x9C961378E2B7B8D8BD6DFCF990651D39)
    Complete name                  : Backstreet Boys - All I Have To Give [UP-720p][x264][AC3][DTC].mkv
    Format                         : Matroska
    Format version                 : Version 2
    File size                      : 122 MiB
    Duration                       : 4mn 1s
    Overall bit rate               : 4 230 Kbps
    Encoded date                   : UTC 2012-09-17 04:03:41
    Writing application            : mkvmerge v5.6.0 ('Kenya Kane') built on May 27 2012 16:44:04
    Writing library                : libebml v1.2.3 + libmatroska v1.3.0
    
    Video
    ID                             : 1
    Format                         : AVC
    Format/Info                    : Advanced Video Codec
    Format profile                 : [email protected]
    Format settings, CABAC         : Yes
    Format settings, ReFrames      : 4 frames
    Codec ID                       : V_MPEG4/ISO/AVC
    Duration                       : 4mn 1s
    Bit rate                       : 4 000 Kbps
    Width                          : 944 pixels
    Height                         : 720 pixels
    Display aspect ratio           : 4:3
    Frame rate mode                : Constant
    Frame rate                     : 23.976 fps
    Color space                    : YUV
    Chroma subsampling             : 4:2:0
    Bit depth                      : 8 bits
    Scan type                      : Progressive
    Bits/(Pixel*Frame)             : 0.245
    Stream size                    : 113 MiB (93%)
    Writing library                : x264 core 125 r2200 999b753
    Encoding settings              : cabac=1 / ref=3 / deblock=1:0:0 / analyse=0x3:0x113 / me=hex / subme=7 / psy=1 / psy_rd=1.00:0.00 / mixed_ref=1 / me_range=16 / chroma_me=1 / trellis=1 / 8x8dct=1 / cqm=0 / deadzone=21,11 / fast_pskip=1 / chroma_qp_offset=-2 / threads=3 / lookahead_threads=1 / sliced_threads=0 / nr=0 / decimate=1 / interlaced=0 / bluray_compat=0 / constrained_intra=0 / bframes=3 / b_pyramid=2 / b_adapt=1 / b_bias=0 / direct=1 / weightb=1 / open_gop=0 / weightp=2 / keyint=240 / keyint_min=23 / scenecut=40 / intra_refresh=0 / rc_lookahead=40 / rc=2pass / mbtree=1 / bitrate=4000 / ratetol=1.0 / qcomp=0.60 / qpmin=0 / qpmax=69 / qpstep=4 / cplxblur=20.0 / qblur=0.5 / ip_ratio=1.40 / aq=1:1.00
    Language                       : English
    Default                        : Yes
    Forced                         : No
    
    Audio
    ID                             : 2
    Format                         : AC-3
    Format/Info                    : Audio Coding 3
    Mode extension                 : CM (complete main)
    Format settings, Endianness    : Big
    Codec ID                       : A_AC3
    Duration                       : 4mn 1s
    Bit rate mode                  : Constant
    Bit rate                       : 224 Kbps
    Channel(s)                     : 2 channels
    Channel positions              : Front: L R
    Sampling rate                  : 48.0 KHz
    Bit depth                      : 16 bits
    Compression mode               : Lossy
    Stream size                    : 6.45 MiB (5%)
    Default                        : Yes
    Forced                         : No
    
    
    Link:
    Link tải phim
    Nhấn nút Cảm ơn (dưới chân bài) để thấy link!
     
    Chỉnh sửa cuối: 25/9/12
  15. dtancanh

    dtancanh Well-Known Member

    Tham gia ngày:
    21/2/12
    Bài viết:
    384
    Đã được cảm ơn:
    762
    Nghề nghiệp:
    Học Sinh
    Nơi ở:
    Việt Nam
    Ðề: [MV] Backstreet Boys: Video Hits Collection [HD-Upscale-DTC]

    Thông báo khẩn: acc MF đã bị locked huhu
     
    haobodoi, linux23, vannhop and 3 others like this.
  16. dtancanh

    dtancanh Well-Known Member

    Tham gia ngày:
    21/2/12
    Bài viết:
    384
    Đã được cảm ơn:
    762
    Nghề nghiệp:
    Học Sinh
    Nơi ở:
    Việt Nam
    Ðề: [MV] Backstreet Boys: Video Hits Collection [HD-Upscale-DTC]

    Fixed - Link Fshare
     
    haobodoi, linux23, vannhop and 4 others like this.
  17. boykutehp90

    boykutehp90 Well-Known Member

    Tham gia ngày:
    30/3/10
    Bài viết:
    2,106
    Đã được cảm ơn:
    2,633
    Giới tính:
    Nam
    Nghề nghiệp:
    Shipper
    Nơi ở:
    Việt Nam
    Tội nghiệp, có mỗi cái tài khoản cũng bị xóa. :( nếu tải lên dịch vụ trong nước thì em nên đăng ký tài khoản và mua VIP xịn để bảo vệ tập tin khỏi bị xóa
     
    pp_net2000 cảm ơn bài này.
  18. dtancanh

    dtancanh Well-Known Member

    Tham gia ngày:
    21/2/12
    Bài viết:
    384
    Đã được cảm ơn:
    762
    Nghề nghiệp:
    Học Sinh
    Nơi ở:
    Việt Nam
    Ðề: Re: [MV] Backstreet Boys: Video Hits Collection [HD-Upscale-DTC]

    Fshare thì em thấy ít file nào bị xóa lắm
     
    Alios2012, haobodoi, linux23 and 5 others like this.
  19. dtancanh

    dtancanh Well-Known Member

    Tham gia ngày:
    21/2/12
    Bài viết:
    384
    Đã được cảm ơn:
    762
    Nghề nghiệp:
    Học Sinh
    Nơi ở:
    Việt Nam
    Ðề: [MV] Backstreet Boys: Video Hits Collection [HD-Upscale-DTC]

    [MV] Backstreet Boys - Helpless When She Smiles [HD-720p]

    [​IMG]
    INFORMATION


    Mã:
    General
    Unique ID                      : 223613660668181548187471398896308902589 (0xA83A6CAC644B48E7B601A0577B8CDABD)
    Complete name                  : Backstreet Boys - Helpless When She Smiles [UP-720p][x264][FLAC][DTC].mkv
    Format                         : Matroska
    Format version                 : Version 2
    File size                      : 146 MiB
    Duration                       : 4mn 2s
    Overall bit rate mode          : Variable
    Overall bit rate               : 5 072 Kbps
    Encoded date                   : UTC 2012-09-26 11:35:19
    Writing application            : mkvmerge v5.6.0 ('Kenya Kane') built on May 27 2012 16:44:04
    Writing library                : libebml v1.2.3 + libmatroska v1.3.0
    
    Video
    ID                             : 1
    Format                         : AVC
    Format/Info                    : Advanced Video Codec
    Format profile                 : [email protected]
    Format settings, CABAC         : Yes
    Format settings, ReFrames      : 4 frames
    Codec ID                       : V_MPEG4/ISO/AVC
    Duration                       : 4mn 2s
    Nominal bit rate               : 4 000 Kbps
    Width                          : 1 280 pixels
    Height                         : 480 pixels
    Display aspect ratio           : 2.667
    Frame rate mode                : Constant
    Frame rate                     : 29.970 fps
    Color space                    : YUV
    Chroma subsampling             : 4:2:0
    Bit depth                      : 8 bits
    Scan type                      : Progressive
    Bits/(Pixel*Frame)             : 0.217
    Writing library                : x264 core 125 r2200 999b753
    Encoding settings              : cabac=1 / ref=3 / deblock=1:0:0 / analyse=0x3:0x113 / me=hex / subme=7 / psy=1 / psy_rd=1.00:0.00 / mixed_ref=1 / me_range=16 / chroma_me=1 / trellis=1 / 8x8dct=1 / cqm=0 / deadzone=21,11 / fast_pskip=1 / chroma_qp_offset=-2 / threads=3 / lookahead_threads=1 / sliced_threads=0 / nr=0 / decimate=1 / interlaced=0 / bluray_compat=0 / constrained_intra=0 / bframes=3 / b_pyramid=2 / b_adapt=1 / b_bias=0 / direct=1 / weightb=1 / open_gop=0 / weightp=2 / keyint=300 / keyint_min=29 / scenecut=40 / intra_refresh=0 / rc_lookahead=40 / rc=2pass / mbtree=1 / bitrate=4000 / ratetol=1.0 / qcomp=0.60 / qpmin=0 / qpmax=69 / qpstep=4 / cplxblur=20.0 / qblur=0.5 / ip_ratio=1.40 / aq=1:1.00
    Language                       : English
    Default                        : Yes
    Forced                         : No
    
    Audio
    ID                             : 2
    Format                         : FLAC
    Format/Info                    : Free Lossless Audio Codec
    Codec ID                       : A_FLAC
    Duration                       : 4mn 2s
    Bit rate mode                  : Variable
    Channel(s)                     : 2 channels
    Sampling rate                  : 48.0 KHz
    Bit depth                      : 16 bits
    Writing library                : libFLAC 1.2.1 (UTC 2007-09-17)
    Default                        : Yes
    Forced                         : No
    
    
    Link:
    Link tải phim
    Nhấn nút Cảm ơn (dưới chân bài) để thấy link!
     
  20. dtancanh

    dtancanh Well-Known Member

    Tham gia ngày:
    21/2/12
    Bài viết:
    384
    Đã được cảm ơn:
    762
    Nghề nghiệp:
    Học Sinh
    Nơi ở:
    Việt Nam
    Ðề: [MV] Backstreet Boys: Video Hits Collection [HD-Upscale-DTC]

    [MV] Backstreet Boys - I Want It That Way [VOB]
    Vì chất lượng video hơi kém nên DTC không Upscale!!!

    [​IMG]
    INFORMATION

    Mã:
    General
    Complete name                  : Backstreet Boys - I Want It That Way.vob
    Format                         : MPEG-PS
    File size                      : 189 MiB
    Duration                       : 3mn 40s
    Overall bit rate mode          : Variable
    Overall bit rate               : 7 185 Kbps
    
    Video
    ID                             : 224 (0xE0)
    Format                         : MPEG Video
    Format version                 : Version 2
    Format profile                 : [email protected]
    Format settings, BVOP          : Yes
    Format settings, Matrix        : Default
    Format settings, GOP           : M=3, N=13
    Duration                       : 3mn 40s
    Bit rate mode                  : Variable
    Maximum bit rate               : 8 000 Kbps
    Width                          : 720 pixels
    Height                         : 480 pixels
    Display aspect ratio           : 4:3
    Frame rate                     : 29.970 fps
    Standard                       : NTSC
    Color space                    : YUV
    Chroma subsampling             : 4:2:0
    Bit depth                      : 8 bits
    Scan type                      : Interlaced
    Scan order                     : Top Field First
    Compression mode               : Lossy
    Color primaries                : BT.601 NTSC
    Transfer characteristics       : BT.601
    Matrix coefficients            : BT.601
    
    Audio #1
    ID                             : 189 (0xBD)-128 (0x80)
    Format                         : AC-3
    Format/Info                    : Audio Coding 3
    Mode extension                 : CM (complete main)
    Format settings, Endianness    : Big
    Muxing mode                    : DVD-Video
    Duration                       : 3mn 38s
    Bit rate mode                  : Constant
    Bit rate                       : 224 Kbps
    Channel(s)                     : 2 channels
    Channel positions              : Front: L R
    Sampling rate                  : 48.0 KHz
    Bit depth                      : 16 bits
    Compression mode               : Lossy
    Delay relative to video        : -42ms
    Stream size                    : 5.84 MiB (3%)
    
    Audio #2
    ID                             : 195 (0xC3)
    Format                         : MPEG Audio
    Compression mode               : Lossy
    
    Audio #3
    ID                             : 221 (0xDD)
    Format                         : MPEG Audio
    Compression mode               : Lossy
    
    Menu
    
    
    Link:
    Link tải phim
    Nhấn nút Cảm ơn (dưới chân bài) để thấy link!
     
    achau711, pianoman, hungttx and 22 others like this.
  21. dtancanh

    dtancanh Well-Known Member

    Tham gia ngày:
    21/2/12
    Bài viết:
    384
    Đã được cảm ơn:
    762
    Nghề nghiệp:
    Học Sinh
    Nơi ở:
    Việt Nam
    Ðề: [MV] Backstreet Boys: Video Hits Collection [HD-Upscale-DTC]

    [MV] Backstreet Boys - Larger Than Life [HD-720p]

    [​IMG]
    INFORMATION

    Mã:
    General
    Unique ID                      : 187324178039374100769805081825163615629 (0x8CED530A86D9E226811DAF4563E41D8D)
    Complete name                  : Backstreet Boys - Larger Than Life [UP-720p][x264][AC3][DTC].mkv
    Format                         : Matroska
    Format version                 : Version 2
    File size                      : 160 MiB
    Duration                       : 5mn 16s
    Overall bit rate               : 4 229 Kbps
    Encoded date                   : UTC 2012-09-29 05:24:57
    Writing application            : mkvmerge v5.6.0 ('Kenya Kane') built on May 27 2012 16:44:04
    Writing library                : libebml v1.2.3 + libmatroska v1.3.0
    
    Video
    ID                             : 1
    Format                         : AVC
    Format/Info                    : Advanced Video Codec
    Format profile                 : [email protected]
    Format settings, CABAC         : Yes
    Format settings, ReFrames      : 4 frames
    Codec ID                       : V_MPEG4/ISO/AVC
    Duration                       : 5mn 16s
    Bit rate                       : 4 000 Kbps
    Width                          : 1 280 pixels
    Height                         : 624 pixels
    Display aspect ratio           : 2.051
    Frame rate mode                : Constant
    Frame rate                     : 23.976 fps
    Color space                    : YUV
    Chroma subsampling             : 4:2:0
    Bit depth                      : 8 bits
    Scan type                      : Progressive
    Bits/(Pixel*Frame)             : 0.209
    Stream size                    : 148 MiB (93%)
    Writing library                : x264 core 125 r2200 999b753
    Encoding settings              : cabac=1 / ref=3 / deblock=1:0:0 / analyse=0x3:0x113 / me=hex / subme=7 / psy=1 / psy_rd=1.00:0.00 / mixed_ref=1 / me_range=16 / chroma_me=1 / trellis=1 / 8x8dct=1 / cqm=0 / deadzone=21,11 / fast_pskip=1 / chroma_qp_offset=-2 / threads=3 / lookahead_threads=1 / sliced_threads=0 / nr=0 / decimate=1 / interlaced=0 / bluray_compat=0 / constrained_intra=0 / bframes=3 / b_pyramid=2 / b_adapt=1 / b_bias=0 / direct=1 / weightb=1 / open_gop=0 / weightp=2 / keyint=240 / keyint_min=23 / scenecut=40 / intra_refresh=0 / rc_lookahead=40 / rc=2pass / mbtree=1 / bitrate=4000 / ratetol=1.0 / qcomp=0.60 / qpmin=0 / qpmax=69 / qpstep=4 / cplxblur=20.0 / qblur=0.5 / ip_ratio=1.40 / aq=1:1.00
    Language                       : English
    Default                        : Yes
    Forced                         : No
    
    Audio
    ID                             : 2
    Format                         : AC-3
    Format/Info                    : Audio Coding 3
    Mode extension                 : CM (complete main)
    Format settings, Endianness    : Big
    Codec ID                       : A_AC3
    Duration                       : 5mn 16s
    Bit rate mode                  : Constant
    Bit rate                       : 224 Kbps
    Channel(s)                     : 2 channels
    Channel positions              : Front: L R
    Sampling rate                  : 48.0 KHz
    Bit depth                      : 16 bits
    Compression mode               : Lossy
    Stream size                    : 8.46 MiB (5%)
    Default                        : Yes
    Forced                         : No
    
    
    Link:
    Link tải phim
    Nhấn nút Cảm ơn (dưới chân bài) để thấy link!
     
    achau711, pianoman, hungttx and 22 others like this.

Chia sẻ trang này