[Google Drive] [MV] Đông Nhi - Khi Con Là Mẹ (4K Master)

Thảo luận trong 'Việt Nam' bắt đầu bởi manhpotato, 25/8/21.

  1. manhpotato

    manhpotato Well-Known Member

    Tham gia ngày:
    11/2/16
    Bài viết:
    96
    Đã được cảm ơn:
    312
    [​IMG]
    General
    Complete name : C:\Users\Đông Nhi - Khi Con Là Mẹ (Master).mp4
    Format : MPEG-4
    Format profile : Base Media
    Codec ID : isom (isom)
    File size : 733 MiB

    Duration : 5 min 11 s

    Overall bit rate mode : Variable
    Overall bit rate : 19.8 Mb/s
    Encoded date : UTC 2021-08-25 16:04:36
    Tagged date : UTC 2021-08-25 16:04:36
    Video
    ID : 1
    Format : AVC
    Format/Info : Advanced Video Codec
    Format profile : [email protected]
    Format settings : CABAC / 5 Ref Frames
    Format settings, CABAC : Yes
    Format settings, Reference : 5 frames
    Codec ID : avc1
    Codec ID/Info : Advanced Video Coding
    Duration : 5 min 11 s
    Bit rate : 19.5 Mb/s
    Maximum bit rate : 35.6 Mb/s
    Width : 3 840 pixels
    Height : 2 160 pixels
    Display aspect ratio : 16:9
    Frame rate mode : Constant
    Frame rate : 25.000 FPS
    Color space : YUV
    Chroma subsampling : 4:2:0
    Bit depth : 8 bits
    Scan type : Progressive
    Bits/(Pixel*Frame) : 0.094
    Stream size : 724 MiB (99%)
    Writing library : x264 core 160 r10 33f9e14
    Tagged date : UTC 2021-08-25 16:04:40
    Color range : Limited
    Color primaries : BT.709
    Transfer characteristics : BT.709
    Matrix coefficients : BT.709
    Codec configuration box : avcC
    Audio
    ID : 2
    Format : AAC LC
    Format/Info : Advanced Audio Codec Low Complexity
    Codec ID : mp4a-40-2
    Duration : 5 min 11 s
    Bit rate mode : Variable
    Bit rate : 253 kb/s
    Maximum bit rate : 259 kb/s
    Channel(s) : 2 channels
    Channel layout : L R
    Sampling rate : 48.0 kHz
    Frame rate : 46.875 FPS (1024 SPF)
    Compression mode : Lossy
    Stream size : 9.40 MiB (1%)
    Language : Vietnamese
    Default : Yes
    Alternate group : 1
    Tagged date : UTC 2021-08-25 16:04:40

     
    rongcanlc and vinhtq115 like this.

Chia sẻ trang này