[Fshare] NatGeo Wild - Wild 24 Season 01 (2015) 720p HDTV x264

Thảo luận trong 'Phim tài liệu - Documentaries' bắt đầu bởi iscol, 17/8/15.

  1. iscol

    iscol Well-Known Member

    Tham gia ngày:
    1/9/09
    Bài viết:
    4,550
    Đã được cảm ơn:
    10,905
    Giới tính:
    Nam
    Nghề nghiệp:
    Computer
    Nơi ở:
    Việt Nam
    [​IMG]
    NatGeo Wild - Wild 24 Season 01 (2015) 720p HDTV x264
    Wild 24 - Nat Geo WILD

    Media Info
    Format : Matroska
    Format version : Version 4 / Version 2
    File size : 1.33 GiB
    Duration : 43mn 58s
    Overall bit rate : 4 339 Kbps
    Encoded date : UTC 2015-08-17 05:14:42
    Writing application : mkvmerge v8.3.0 ('Over the Horizon') 32bit
    Writing library : libebml v1.3.1 + libmatroska v1.4.2
    DURATION : 00:43:58.656000000
    NUMBER_OF_FRAMES : 82458
    NUMBER_OF_BYTES : 126655488
    _STATISTICS_WRITING_APP : mkvmerge v8.3.0 ('Over the Horizon') 32bit
    _STATISTICS_WRITING_DATE_UT : 2015-08-17 05:14:42
    _STATISTICS_TAGS : BPS DURATION NUMBER_OF_FRAMES NUMBER_OF_BYTES

    Video
    ID : 1
    Format : AVC
    Format/Info : Advanced Video Codec
    Format profile : [email protected]
    Format settings, CABAC : Yes
    Format settings, ReFrames : 5 frames
    Codec ID : V_MPEG4/ISO/AVC
    Duration : 43mn 58s
    Bit rate : 3 677 Kbps
    Width : 1 280 pixels
    Height : 720 pixels
    Display aspect ratio : 16:9
    Frame rate mode : Constant
    Frame rate : 25.000 fps
    Color space : YUV
    Chroma subsampling : 4:2:0
    Bit depth : 8 bits
    Scan type : Progressive
    Bits/(Pixel*Frame) : 0.160
    Stream size : 1.13 GiB (85%)
    Writing library : x264 core 148 r2579 73ae2d1
    Encoding settings : cabac=1 / ref=5 / deblock=1:-2:-2 / analyse=0x3:0x113 / me=umh / subme=8 / psy=1 / psy_rd=1.00:0.00 / mixed_ref=1 / me_range=16 / chroma_me=1 / trellis=1 / 8x8dct=1 / cqm=0 / deadzone=21,11 / fast_pskip=1 / chroma_qp_offset=-2 / threads=12 / lookahead_threads=2 / sliced_threads=0 / nr=0 / decimate=1 / interlaced=0 / bluray_compat=0 / constrained_intra=0 / bframes=3 / b_pyramid=2 / b_adapt=2 / b_bias=0 / direct=3 / weightb=1 / open_gop=0 / weightp=2 / keyint=250 / keyint_min=25 / scenecut=40 / intra_refresh=0 / rc_lookahead=50 / rc=crf / mbtree=1 / crf=20.0 / qcomp=0.60 / qpmin=0 / qpmax=69 / qpstep=4 / ip_ratio=1.40 / aq=1:1.00
    Language : English
    Default : Yes
    Forced : No
    DURATION : 00:43:58.680000000
    NUMBER_OF_FRAMES : 65967
    NUMBER_OF_BYTES : 1240418284
    _STATISTICS_WRITING_APP : mkvmerge v8.3.0 ('Over the Horizon') 32bit
    _STATISTICS_WRITING_DATE_UT : 2015-08-17 05:14:42
    _STATISTICS_TAGS : BPS DURATION NUMBER_OF_FRAMES NUMBER_OF_BYTES

    Audio #1
    ID : 2
    Format : AC-3
    Format/Info : Audio Coding 3
    Mode extension : CM (complete main)
    Format settings, Endianness : Big
    Codec ID : A_AC3
    Duration : 43mn 58s
    Bit rate mode : Constant
    Bit rate : 384 Kbps
    Channel(s) : 6 channels
    Channel positions : Front: L C R, Side: L R, LFE
    Sampling rate : 48.0 KHz
    Compression mode : Lossy
    Stream size : 121 MiB (9%)
    Language : English
    Default : Yes
    Forced : No

    Audio #2
    ID : 3
    Format : MPEG Audio
    Format version : Version 1
    Format profile : Layer 2
    Codec ID : A_MPEG/L2
    Codec ID/Hint : MP2
    Duration : 43mn 58s
    Bit rate mode : Constant
    Bit rate : 192 Kbps
    Channel(s) : 2 channels
    Sampling rate : 48.0 KHz
    Compression mode : Lossy
    Delay relative to video : 6ms
    Stream size : 60.4 MiB (4%)
    Language : English
    Default : No
    Forced : No



    Wild 24

    This is a snapshot of earth's most extraordinary animals, documenting their daily lives and stories of survival captured over a period of 24 hours.

    - The Devil's Island

    From the forests to the waters, this is a snapshot of the extraordinary lives of Tasmania’s animals over 24 hours. This land south of the Australian mainland has an extraordinary variety of strange and bizarre creatures.


    - Lion Battlefield

    The Africa savannah crosses 25 countries and is home to millions of animals. Here, herbivores and carnivores are caught in a constant struggle for survival. From the apex carnivore, the lion, to the humble meerkat, this film charts 24 hours of life, through day, night and day again, revealing incredible behavior driven by the evolutionary clock of time.

    - Scorched Earth

    This film follows a group of animals over 24 hours living in and around one of the driest desert regions on earth: the Atacama in northern Chile.


    Screenshot

    [​IMG]

    Download

    Fshare.vn



     
  2. Đang tải...


  3. nhoc_romeo

    nhoc_romeo Well-Known Member

    Tham gia ngày:
    22/8/09
    Bài viết:
    1,264
    Đã được cảm ơn:
    193
    Ðề: NatGeo Wild - Wild 24 Season 01 (2015) 720p HDTV x264

    phim hay mà ko có sub việt,tiếc quá.
     

Chia sẻ trang này