Netflix - Phim Việt Nam Collection

Thảo luận trong 'WEB-DL, HDTV' bắt đầu bởi tommyking, 22/2/20.

  1. tommyking

    tommyking Well-Known Member

    Tham gia ngày:
    24/4/09
    Bài viết:
    887
    Đã được cảm ơn:
    13,653
    Giới tính:
    Nam
    NF - Phim Việt Nam Collection

    [​IMG]
    [​IMG]

    Nhấn nút Cảm ơn (dưới chân bài) để thấy link!
     
    Chỉnh sửa cuối: 19/3/20
  2. Đang tải...


  3. tommyking

    tommyking Well-Known Member

    Tham gia ngày:
    24/4/09
    Bài viết:
    887
    Đã được cảm ơn:
    13,653
    Giới tính:
    Nam
    ANH THẦY NGÔI SAO - SUPERSTAR TEACHER 2019

    [​IMG]

    [​IMG]
    [​IMG]


    [​IMG]
    [​IMG]


    [​IMG]

    Nhấn nút Cảm ơn (dưới chân bài) để thấy link!
     
  4. danbeomap111

    danbeomap111 Active Member

    Tham gia ngày:
    15/12/10
    Bài viết:
    102
    Đã được cảm ơn:
    35
    bác có phim anh trai yêu quái bản nhẹ không ạ, tks bác!
     
  5. duytieubao

    duytieubao Member

    Tham gia ngày:
    14/6/12
    Bài viết:
    53
    Đã được cảm ơn:
    32
    có 2 phim Em Chưa 18 với Tèo Em không Ad?
     
    TRAN VINH HAO and zozored like this.
  6. tommyking

    tommyking Well-Known Member

    Tham gia ngày:
    24/4/09
    Bài viết:
    887
    Đã được cảm ơn:
    13,653
    Giới tính:
    Nam
    Mình có nhiêu đây thôi nhé
     
  7. Lê Ngân Hà

    Lê Ngân Hà New Member

    Tham gia ngày:
    2/3/20
    Bài viết:
    17
    Đã được cảm ơn:
    9
    Cảm ơn bác
     
    zozored and tommyking like this.
  8. saigonboy_92

    saigonboy_92 Active Member

    Tham gia ngày:
    15/10/10
    Bài viết:
    588
    Đã được cảm ơn:
    46
    Giới tính:
    Nam
    có phim mới nhớ update nha bạn ơi,cám ơn bạn nhiều
     
    zozored cảm ơn bài này.
  9. tommyking

    tommyking Well-Known Member

    Tham gia ngày:
    24/4/09
    Bài viết:
    887
    Đã được cảm ơn:
    13,653
    Giới tính:
    Nam
    EM CHƯA 18 (JAILBAIT) 2017

    [​IMG]

    [​IMG]

    [​IMG]

    [​IMG]
    [​IMG]


    [​IMG]

    Nhấn nút Cảm ơn (dưới chân bài) để thấy link!


    #NETFLIX #SHAREACC4KPRENIUM
     
    Chỉnh sửa cuối: 19/3/20
  10. tommyking

    tommyking Well-Known Member

    Tham gia ngày:
    24/4/09
    Bài viết:
    887
    Đã được cảm ơn:
    13,653
    Giới tính:
    Nam
    TRỜI SÁNG RỒI, TA NGỦ ĐI THÔI {GOOD MORNING AND GOOD NIGHT} 2019

    [​IMG]

    [​IMG]

    [​IMG]
    [​IMG]
    [​IMG]
    [​IMG]

    Nhấn nút Cảm ơn (dưới chân bài) để thấy link!


    #NETFLIX #SHAREACC4KPRENIUM
     
  11. Huynh Huy

    Huynh Huy New Member

    Tham gia ngày:
    3/4/20
    Bài viết:
    3
    Đã được cảm ơn:
    2
    thớt có phim thưa mẹ con đi ko ?
     
  12. tommyking

    tommyking Well-Known Member

    Tham gia ngày:
    24/4/09
    Bài viết:
    887
    Đã được cảm ơn:
    13,653
    Giới tính:
    Nam
    GOODBYE! MOTHER (THƯA MẸ! CON ĐI) 2020

    [​IMG]

    [​IMG]

    [​IMG]

    Mã:
     General
    Complete name  : D:\3-Phim\Thua Me Con Di.mp4
    Format  : MPEG-4
    Format profile  : Base Media
    Codec ID  : isom (isom/iso2/avc1/mp41)
    File size  : 2.14 GiB
    Duration  : 1 h 45 min
    Overall bit rate  : 2 915 kb/s
    Writing application  : Lavf58.33.100
    
    Video
    ID  : 1
    Format  : AVC
    Format/Info  : Advanced Video Codec
    Format profile  : [email protected]
    Format settings  : CABAC / 3 Ref Frames
    Format settings, CABAC  : Yes
    Format settings, Reference  : 3 frames
    Codec ID  : avc1
    Codec ID/Info  : Advanced Video Coding
    Duration  : 1 h 45 min
    Bit rate  : 2 270 kb/s
    Width  : 1 920 pixels
    Height  : 1 080 pixels
    Display aspect ratio  : 16:9
    Frame rate mode  : Constant
    Frame rate  : 24.000 FPS
    Color space  : YUV
    Chroma subsampling  : 4:2:0
    Bit depth  : 8 bits
    Scan type  : Progressive
    Bits/(Pixel*Frame)  : 0.046
    Stream size  : 1.67 GiB (78%)
    Codec configuration box  : avcC
    
    Audio
    ID  : 2
    Format  : E-AC-3
    Format/Info  : Enhanced AC-3
    Commercial name  : Dolby Digital Plus
    Codec ID  : ec-3
    Duration  : 1 h 45 min
    Bit rate mode  : Constant
    Bit rate  : 640 kb/s
    Channel(s)  : 6 channels
    Channel layout  : L R C LFE Ls Rs
    Sampling rate  : 48.0 kHz
    Frame rate  : 31.250 FPS (1536 SPF)
    Compression mode  : Lossy
    Stream size  : 481 MiB (22%)
    Language  : Vietnamese
    Service kind  : Complete Main
    Default  : Yes
    Alternate group  : 1
    
    
    [​IMG]
    [​IMG]
    [​IMG]

    [​IMG]

    Nhấn nút Cảm ơn (dưới chân bài) để thấy link!


    #NETFLIX #SHAREACC4KPRENIUM
     
  13. tommyking

    tommyking Well-Known Member

    Tham gia ngày:
    24/4/09
    Bài viết:
    887
    Đã được cảm ơn:
    13,653
    Giới tính:
    Nam
    Added
     
    LUCKYTRANOTTAWA and Huynh Huy like this.
  14. eclipserain

    eclipserain New Member

    Tham gia ngày:
    11/2/12
    Bài viết:
    5
    Đã được cảm ơn:
    0
    Có bản NF 5Gb không bạn?
     
  15. Huynh Huy

    Huynh Huy New Member

    Tham gia ngày:
    3/4/20
    Bài viết:
    3
    Đã được cảm ơn:
    2
    link die rồi bác ơi
     
  16. MinHae

    MinHae New Member

    Tham gia ngày:
    15/11/11
    Bài viết:
    10
    Đã được cảm ơn:
    2
    Anh ơi xem link phim sao giúp em để em down về xem với. Link die mất rồi :((
     
    thienlinh078 and romvemot like this.
  17. Kudoan1144

    Kudoan1144 New Member

    Tham gia ngày:
    8/2/20
    Bài viết:
    19
    Đã được cảm ơn:
    10
    Bác có tháng năm rực rỡ & cô gái đến từ hôm qua vừa được up trên Netflix không ạ , em cảm ơn nhiều
     
    thienlinh078 cảm ơn bài này.

Chia sẻ trang này