Noah 2014 BluRay 720p + 1080p DTS x264-CHD

Thảo luận trong 'Torrent Download' bắt đầu bởi nthieus2, 6/7/14.

  1. nthieus2

    nthieus2 Member

    Tham gia ngày:
    30/8/11
    Bài viết:
    266
    Đã được cảm ơn:
    223
    Nơi ở:
    Hanoi, Vietnam, Vietnam
    Noah 2014 BluRay 720p + 1080p DTS x264-CHD
    Đại Hồng Thủy

    [​IMG]

    [​IMG]

    [​IMG]

    [​IMG]

    Mã:
    Noah.2014.BluRay.720p.DTS.x264-CHD
    RELEASE DATE....: 07/05/2014
    THEATRE DATE....: 2014
    iMDB URL........: http://www.imdb.com/title/tt1959490
    iMDB RATiNG.....: 6.4/10 (59,056 votes)
    GENRE...........: Action, Adventure, Drama
    SOURCE .........: Noah 2014 BluRay 1080p AVC DTS-HD MA7.1-CHDBits
    ViDEO BiTRATE...: x264 L4.1 High @ 5261 Kbps
    FRAME RATE......: 23.976 fps
    AUDiO 1.........: ENG DTS-CORE 5.1 @ 1509Kbps
    RUNTiME.........: 02:17:53 (h:m:s)
    ASPECT RATiO....: 1.85 : 1
    RESOLUTiON......: 1280 X 694
    SUBTiTLES.......: N/A
    CHAPTERS........: N/A
    FilE SiZE.......: 6.5 G
    ENCODER.........: [email protected]
    x264 [info]: frame I:1804 Avg QP:15.21 size:172267
    x264 [info]: frame P:47727 Avg QP:17.78 size: 49430
    x264 [info]: frame B:148826 Avg QP:20.16 size: 18537
    
    Noah.2013.1080p.BluRay.x264-SPARKS
    
    Release.Date: 04.07.2014
    Video.......: X264 8702Kbps
    Frame.Rate..: 23.976
    Resolution..: 1920x1040
    Audio.......: DTS 1509Kbps 6ch
    Language....: English
    Length......: 2h 17mn
    Source......: Retail BluRay
    Size........: 10069MB
    Subtitles...: English
    
    IMDb: http://www.imdb.com/title/tt1959490
    
    ALLiANCE - iMARS
    
    ASCii/NFO: pH7 of SiLK
    
    
    
    [mediainfo]
    Video
    ID : 1
    Format : AVC
    Format/Info : Advanced Video Codec
    Format profile : [email protected]
    Format settings, CABAC : Yes
    Format settings, ReFrames : 4 frames
    Codec ID : V_MPEG4/ISO/AVC
    Duration : 2h 17mn
    Bit rate : 8 702 Kbps
    Width : 1 920 pixels
    Height : 1 040 pixels
    Display aspect ratio : 1.85:1
    Frame rate mode : Constant
    Frame rate : 23.976 fps
    Color space : YUV
    Chroma subsampling : 4:2:0
    Bit depth : 8 bits
    Scan type : Progressive
    Bits/(Pixel*Frame) : 0.182
    Stream size : 8.18 GiB (83%)
    Writing library : x264 core 142 r2431 ac76440
    Encoding settings : cabac=1 / ref=4 / deblock=1:0:0 / analyse=0x3:0x133 / me=umh / subme=7 / psy=1 / psy_rd=1.00:0.00 / mixed_ref=1 / me_range=16 / chroma_me=1 / trellis=1 / 8x8dct=1 / cqm=0 / deadzone=21,11 / fast_pskip=0 / chroma_qp_offset=-2 / threads=18 / lookahead_threads=3 / sliced_threads=0 / nr=0 / decimate=1 / interlaced=0 / bluray_compat=0 / constrained_intra=0 / bframes=3 / b_pyramid=2 / b_adapt=1 / b_bias=0 / direct=1 / weightb=1 / open_gop=0 / weightp=2 / keyint=250 / keyint_min=23 / scenecut=40 / intra_refresh=0 / rc_lookahead=40 / rc=2pass / mbtree=1 / bitrate=8702 / ratetol=1.0 / qcomp=0.60 / qpmin=0 / qpmax=69 / qpstep=4 / cplxblur=20.0 / qblur=0.5 / ip_ratio=1.40 / aq=1:1.00
    Language : English
    Default : Yes
    Forced : No
    
    Audio
    ID : 2
    Format : DTS
    Format/Info : Digital Theater Systems
    Mode : 16
    Format settings, Endianness : Big
    Codec ID : A_DTS
    Duration : 2h 17mn
    Bit rate mode : Constant
    Bit rate : 1 509 Kbps
    Channel(s) : 6 channels
    Channel positions : Front: L C R, Side: L R, LFE
    Sampling rate : 48.0 KHz
    Bit depth : 24 bits
    Compression mode : Lossy
    Stream size : 1.45 GiB (15%)
    Language : English
    Default : Yes
    Forced : No
    
    Noah.2014.1080p.BluRay.AVC.DTS-HD.MA.7.1-RARBG
    
    http://imdb.com/title/tt1959490/
    DISC INFO:
    
    Disc Title: Noah 2014
    Disc Size: 44,295,850,188 bytes
    Protection: AACS
    BD-Java: Yes
    BDInfo: 0.5.8
    
    PLAYLIST REPORT:
    
    Name: 00800.MPLS
    Length: 2:17:53.139 (h:m:s.ms)
    Size: 35,421,923,328 bytes
    Total Bitrate: 34.25 Mbps
    
    VIDEO:
    
    Codec Bitrate Description 
    ----- ------- ----------- 
    MPEG-4 AVC Video 24518 kbps 1080p / 23.976 fps / 16:9 / High Profile 4.1
    
    AUDIO:
    
    Codec Language Bitrate Description 
    ----- -------- ------- ----------- 
    DTS-HD Master Audio English 5149 kbps 7.1 / 48 kHz / 5149 kbps / 24-bit (DTS Core: 5.1 / 48 kHz / 1509 kbps / 24-bit)
    Dolby Digital Audio French 640 kbps 5.1 / 48 kHz / 640 kbps / DN -4dB
    Dolby Digital Audio Spanish 640 kbps 5.1 / 48 kHz / 640 kbps / DN -4dB
    Dolby Digital Audio Portuguese 640 kbps 5.1 / 48 kHz / 640 kbps / DN -4dB
    Dolby Digital Audio English 640 kbps 5.1 / 48 kHz / 640 kbps / DN -4dB
    
    SUBTITLES:
    
    Codec Language Bitrate Description 
    ----- -------- ------- ----------- 
    Presentation Graphics English 17.380 kbps 
    Presentation Graphics English 21.662 kbps 
    Presentation Graphics French 18.280 kbps 
    Presentation Graphics Spanish 17.047 kbps 
    Presentation Graphics Portuguese 16.553 kbps 
    
    [mediainfo]
    
    Format : BDAV
    Format/Info : Blu-ray Video
    File size : 33.0 GiB
    Overall bit rate mode : Variable
    Maximum Overall bit rate : 48.0 Mbps
    
    Video
    ID : 4113 (0x1011)
    Menu ID : 1 (0x1)
    Format : AVC
    Format/Info : Advanced Video Codec
    Format profile : [email protected]
    Format settings, CABAC : Yes
    Format settings, ReFrames : 4 frames
    Codec ID : 27
    Bit rate mode : Variable
    Maximum bit rate : 33.0 Mbps
    Width : 1 920 pixels
    Height : 1 080 pixels
    Display aspect ratio : 16:9
    Frame rate : 23.976 fps
    Color space : YUV
    Chroma subsampling : 4:2:0
    Bit depth : 8 bits
    Scan type : Progressive
    
    Audio #1
    ID : 4352 (0x1100)
    Menu ID : 1 (0x1)
    Format : DTS
    Format/Info : Digital Theater Systems
    Format profile : MA / Core
    Mode : 16
    Format settings, Endianness : Big
    Muxing mode : Stream extension
    Codec ID : 134
    Bit rate mode : Variable
    Bit rate : 5149 Kbps
    Channel(s) : 8 channels / 6 channels
    Channel positions : Front: L C R, Side: L R, Back: L R, LFE / Front: L C R, Side: L R, LFE
    Sampling rate : 48.0 KHz
    Bit depth : 24 bits
    Compression mode : Lossless / Lossy
    
    Audio #2
    ID : 4353 (0x1101)
    Menu ID : 1 (0x1)
    Format : AC-3
    Format/Info : Audio Coding 3
    Mode extension : CM (complete main)
    Format settings, Endianness : Big
    Codec ID : 129
    Bit rate mode : Constant
    Bit rate : 640 Kbps
    Channel(s) : 6 channels
    Channel positions : Front: L C R, Side: L R, LFE
    Sampling rate : 48.0 KHz
    Bit depth : 16 bits
    Compression mode : Lossy
    
    Audio #3
    ID : 4354 (0x1102)
    Menu ID : 1 (0x1)
    Format : AC-3
    Format/Info : Audio Coding 3
    Mode extension : CM (complete main)
    Format settings, Endianness : Big
    Codec ID : 129
    Bit rate mode : Constant
    Bit rate : 640 Kbps
    Channel(s) : 6 channels
    Channel positions : Front: L C R, Side: L R, LFE
    Sampling rate : 48.0 KHz
    Bit depth : 16 bits
    Compression mode : Lossy
    
    Audio #4
    ID : 4355 (0x1103)
    Menu ID : 1 (0x1)
    Format : AC-3
    Format/Info : Audio Coding 3
    Mode extension : CM (complete main)
    Format settings, Endianness : Big
    Codec ID : 129
    Bit rate mode : Constant
    Bit rate : 640 Kbps
    Channel(s) : 6 channels
    Channel positions : Front: L C R, Side: L R, LFE
    Sampling rate : 48.0 KHz
    Bit depth : 16 bits
    Compression mode : Lossy
    
    Audio #5
    ID : 4356 (0x1104)
    Menu ID : 1 (0x1)
    Format : AC-3
    Format/Info : Audio Coding 3
    Mode extension : CM (complete main)
    Format settings, Endianness : Big
    Codec ID : 129
    Bit rate mode : Constant
    Bit rate : 640 Kbps
    Channel(s) : 6 channels
    Channel positions : Front: L C R, Side: L R, LFE
    Sampling rate : 48.0 KHz
    Bit depth : 16 bits
    Compression mode : Lossy
    
    [​IMG]

    [​IMG] [​IMG] [​IMG] [​IMG] [​IMG] [​IMG]

    [​IMG]







    [​IMG]

    Link tải phim


    [​IMG]

    [VIDEO=youtube;_OSaJE2rqxU]https://www.youtube.com/watch?v=_OSaJE2rqxU[/VIDEO]
     
    võ nghị cảm ơn bài này.
  2. Đang tải...


  3. zickboss113

    zickboss113 New Member

    Tham gia ngày:
    3/1/11
    Bài viết:
    4
    Đã được cảm ơn:
    0
    Chưa có sub :-<
     

Chia sẻ trang này