Nymphomaniac Volume I+II (2013) HDRip XviD AC3- RARBG

Thảo luận trong 'WEB-DL, HDTV' bắt đầu bởi Ravek, 29/3/14.

  1. Ravek

    Ravek New Member

    Tham gia ngày:
    11/2/13
    Bài viết:
    122
    Đã được cảm ơn:
    4
    [​IMG]


    Nymphomaniac Volume I+II (2013) HDRip XviD AC3- RARBG
    File Size: 1,21 GiB / 1,16 GiB


    .:: MOVIE INFO ::.


    Mã:
    IMDB: 
    http://www.imdb.com/title/tt1937390/
    http://www.imdb.com/title/tt2382009/
    .:: RELEASE INFO ::.

    Mã:
    Nymphomaniac.Volume.I.2013.HDRip.XviD.AC3-RARBG
    http://www.imdb.com/title/tt1937390/
    
    
    Info:
    
    
    Format                                   : AVI
    
    
    Format/Info                              : Audio Video Interleave
    File size                                : 1.21 GiB
    Duration                                 : 1h 57mn
    Overall bit rate                         : 1 474 Kbps
    Movie name                               : Downloaded from RARBG.COM
    Writing library                          : VirtualDub build 35491/release
    Comment                                  : Downloaded from RARBG.COM
    Video
    ID                                       : 0
    Format                                   : MPEG-4 Visual
    Format profile                           : [email protected]
    Format settings, BVOP                    : No
    Format settings, QPel                    : No
    Format settings, GMC                     : No warppoints
    Format settings, Matrix                  : Default (H.263)
    Codec ID                                 : XVID
    Codec ID/Hint                            : XviD
    Duration                                 : 1h 57mn
    Bit rate                                 : 1 081 Kbps
    Width                                    : 720 pixels
    Height                                   : 300 pixels
    Display aspect ratio                     : 2.40:1
    Frame rate                               : 23.976 fps
    Color space                              : YUV
    Chroma subsampling                       : 4:2:0
    Bit depth                                : 8 bits
    Scan type                                : Progressive
    Compression mode                         : Lossy
    Bits/(Pixel*Frame)                       : 0.209
    Stream size                              : 908 MiB (73%)
    Writing library                          : Lavc55.54.100
    Audio
    ID                                       : 1
    Format                                   : AC-3
    Format/Info                              : Audio Coding 3
    Mode extension                           : CM (complete main)
    Format settings, Endianness              : Big
    Codec ID                                 : 2000
    Duration                                 : 1h 57mn
    Bit rate mode                            : Constant
    Bit rate                                 : 384 Kbps
    Channel(s)                               : 6 channels
    Channel positions                        : Front: L C R, Side: L R, LFE
    Sampling rate                            : 48.0 KHz
    Bit depth                                : 16 bits
    Compression mode                         : Lossy
    Stream size                              : 323 MiB (26%)
    Alignment                                : Aligned on interleaves
    Interleave, duration                     : 42 ms (1.00 video frame)
    Interleave, preload duration             : 512 ms
    --------------------------------------------------------------------------
    Nymphomaniac.Volume.II.2013.HDRip.XviD.AC3-RARBG
    http://www.imdb.com/title/tt2382009/
    Info:
    Format                                   : AVI
    Format/Info                              : Audio Video Interleave
    File size                                : 1.16 GiB
    Duration                                 : 2h 3mn
    Overall bit rate                         : 1 346 Kbps
    Movie name                               : Downloaded from RARBG.COM
    Writing library                          : VirtualDub build 35491/release
    Comment                                  : Downloaded from RARBG.COM
    Video
    ID                                       : 0
    Format                                   : MPEG-4 Visual
    Format profile                           : [email protected]
    Format settings, BVOP                    : No
    Format settings, QPel                    : No
    Format settings, GMC                     : No warppoints
    Format settings, Matrix                  : Default (H.263)
    Codec ID                                 : XVID
    Codec ID/Hint                            : XviD
    Duration                                 : 2h 3mn
    Bit rate                                 : 953 Kbps
    Width                                    : 720 pixels
    Height                                   : 300 pixels
    Display aspect ratio                     : 2.40:1
    Frame rate                               : 23.976 fps
    Color space                              : YUV
    Chroma subsampling                       : 4:2:0
    Bit depth                                : 8 bits
    Scan type                                : Progressive
    Compression mode                         : Lossy
    Bits/(Pixel*Frame)                       : 0.184
    Stream size                              : 843 MiB (71%)
    Writing library                          : Lavc55.54.100
    Audio
    ID                                       : 1
    Format                                   : AC-3
    Format/Info                              : Audio Coding 3
    Mode extension                           : CM (complete main)
    Format settings, Endianness              : Big
    Codec ID                                 : 2000
    Duration                                 : 2h 3mn
    Bit rate mode                            : Constant
    Bit rate                                 : 384 Kbps
    Channel(s)                               : 6 channels
    Channel positions                        : Front: L C R, Side: L R, LFE
    Sampling rate                            : 48.0 KHz
    Bit depth                                : 16 bits
    Compression mode                         : Lossy
    Stream size                              : 340 MiB (29%)
    Alignment                                : Aligned on interleaves
    Interleave, duration                     : 42 ms (1.00 video frame)
    Interleave, preload duration             : 512 ms
    
    .:: SCREENSHOTS ::.

    [​IMG]

    [​IMG]

    .:: DOWNLOAD ::.

    [​IMG]

    Mã:
    Download From Rapidgator.net! | 900MB Parts | No CRC | Add 10% Recovery Data
    http://rapidgator.net/file/ce3692c030da2125e04707b20aefaaa1/Nymphomaniac.Volume.I.2013.HDRip.XviD.AC3-RARBG.part1.rar.html
    http://rapidgator.net/file/fd40fdd6a3546935a96154bfc68ce3e7/Nymphomaniac.Volume.I.2013.HDRip.XviD.AC3-RARBG.part2.rar.html
    http://rapidgator.net/file/440db1074895204efdcb8aa61bf30570/Nymphomaniac.Volume.II.2013.HDRip.XviD.AC3-RARBG.part1.rar.html
    http://rapidgator.net/file/2ae425f4bac529304cbc6e2d50051c8a/Nymphomaniac.Volume.II.2013.HDRip.XviD.AC3-RARBG.part2.rar.html
    Download From Rapidgator.net! | Single file
    http://rapidgator.net/file/feed9afe2f09fa97ed53ddbb4ee8a60a/Nymphomaniac.Volume.I.2013.HDRip.XviD.AC3-RARBG.avi.html
    http://rapidgator.net/file/4a63ecba0c6f13caf2706e49bea3745a/Nymphomaniac.Volume.II.2013.HDRip.XviD.AC3-RARBG.avi.html

    If you like my post, don't forget to say thanks!!! :)
     

Chia sẻ trang này