[Fshare] [Remux 4K | H. Động]Dune 2021 2160p BluRay REMUX HEVC DTS-HD MA TrueHD 7.1 Atmos-FGT-Hành Tinh Cát

Thảo luận trong 'Bluray Remux 4K' bắt đầu bởi xemaydinh, 5/12/21.

  1. xemaydinh

    xemaydinh Tem

    Tham gia ngày:
    3/7/10
    Bài viết:
    32,882
    Đã được cảm ơn:
    147,422
    Dune 2021 2160p BluRay REMUX HEVC.DTS-HD.MA.TrueHD.7.1.Atmos-FGT

    Hành tinh cát
    [​IMG]


    Dune xoay quanh câu chuyện về Paul Atreides một chàng trai trẻ đầy tài năng và thông minh anh được sinh ra trong cuộc sống vô cùng tuyệt vời và vượt khỏi tầm hiểu biết của anh, không những thế anh còn phải du hành đến một hành tinh đầy nguy hiểm nhất trong vũ trụ để có thể bảo vệ an toàn cuộc sống trong tương lai của gia đình và người thân của anh. Nhưng những thế lực tàn ác đã trỗi dậy và gây xung đột về sự cung cấp tài nguyên cho sự tồn tại của hành tinh. Và chỉ có những người dũng cảm vượt qua được nỗi sợ hãi mới có thể giữ được mạng sống trên hành tinh này.







    bản 1984 https://www.hdvietnam.com/threads/h...y-remux-avc-dts-hd-ma-5-1-fgt-xu-cat.1724419/

    mhd https://www.hdvietnam.com/threads/h...p-bluray-dd5-1x264-xmd-hanh-tinh-cat.1739781/

    720p https://www.hdvietnam.com/threads/hanh-dong-dune-2021-720p-bluray-x264-dts-hanh-tinh-cat.1739782/

    1080p https://www.hdvietnam.com/threads/h...-truehd-7-1-atmos-x264-hanh-tinh-cat.1739678/

    4K https://www.hdvietnam.com/threads/4...-ma-truehd-7-1-atmos-s-hanh-tinh-cat.1740430/

    Thuyết minh https://www.hdvietnam.com/threads/h...-truehd-7-1-atmos-x264-hanh-tinh-cat.1741081/

    Remux https://www.hdvietnam.com/threads/h...p-avc-truehd-7-1-atmos-hanh-tinh-cat.1739772/

    Remux thuyết minh + sub việt https://www.hdvietnam.com/threads/h...mos-x264-hanh-tinh-cat.1741081/#post-10725807

    Remux 4K https://www.hdvietnam.com/threads/r...tmos-fgt-hanh-tinh-cat.1740222/#post-10719755

    Remux 4K_thuyết minh+sub việt https://www.hdvietnam.com/threads/h...mos-x264-hanh-tinh-cat.1741081/#post-10726088

    ISO 3D https://www.hdvietnam.com/threads/i...-reencoded-mvc-dl-zman-hanh-tinh-cat.1739954/

    ISO https://www.hdvietnam.com/threads/i...tmos-7-1-hanh-tinh-cat.1740431/#post-10720058

    ISO 4K https://www.hdvietnam.com/threads/i...-hevc-truehd-atmos-7-1-hanh-tinh-cat.1740941/
     
    Chỉnh sửa cuối: 13/12/21
    danshur cảm ơn bài này.
  2. xemaydinh

    xemaydinh Tem

    Tham gia ngày:
    3/7/10
    Bài viết:
    32,882
    Đã được cảm ơn:
    147,422
    Video
    ID : 1
    ID in the original source medium : 4113 (0x1011)
    Format : HEVC
    Format/Info : High Efficiency Video Coding
    Format profile : Main [email protected]@High
    HDR format : Dolby Vision, Version 1.0, dvhe.07.06, BL+EL+RPU, Blu-ray compatible / SMPTE ST 2086, HDR10 compatible
    Codec ID : V_MPEGH/ISO/HEVC
    Duration : 2 h 35 min
    Bit rate : 59.8 Mb/s
    Width : 3 840 pixels
    Height : 2 160 pixels
    Display aspect ratio : 16:9
    Frame rate mode : Constant
    Frame rate : 23.976 (24000/1001) FPS
    Color space : YUV
    Chroma subsampling : 4:2:0 (Type 2)
    Bit depth : 10 bits
    Bits/(Pixel*Frame) : 0.300
    Stream size : 64.9 GiB (75%)
    Language : English
    Default : No
    Forced : No
    Color range : Limited
    Color primaries : BT.2020
    Transfer characteristics : PQ
    Matrix coefficients : BT.2020 non-constant
    Mastering display color primaries : Display P3
    Mastering display luminance : min: 0.0050 cd/m2, max: 4000 cd/m2
    Maximum Content Light Level : 787 cd/m2
    Maximum Frame-Average Light Level : 239 cd/m2
    Original source medium : Blu-ray

    Audio #1
    ID : 2
    ID in the original source medium : 4352 (0x1100)
    Format : MLP FBA 16-ch
    Format/Info : Meridian Lossless Packing FBA with 16-channel presentation
    Commercial name : Dolby TrueHD with Dolby Atmos
    Codec ID : A_TRUEHD
    Duration : 2 h 35 min
    Bit rate mode : Variable
    Bit rate : 3 243 kb/s
    Maximum bit rate : 5 472 kb/s
    Channel(s) : 8 channels
    Channel layout : L R C LFE Ls Rs Lb Rb
    Sampling rate : 48.0 kHz
    Frame rate : 1 200.000 FPS (40 SPF)
    Bit depth : 24 bits
    Compression mode : Lossless
    Stream size : 3.52 GiB (4%)
    Title : TrueHD 7.1 Atmos
    Language : English
    Default : Yes
    Forced : No
    Original source medium : Blu-ray
    Number of dynamic objects : 11
    Bed channel count : 1 channel
    Bed channel configuration : LFE

    Audio #2
    ID : 3
    Format : DTS XLL
    Format/Info : Digital Theater Systems
    Commercial name : DTS-HD Master Audio
    Codec ID : A_DTS
    Duration : 2 h 35 min
    Bit rate mode : Variable
    Bit rate : 3 931 kb/s
    Channel(s) : 8 channels
    Channel layout : C L R LFE Lb Rb Lss Rss
    Sampling rate : 48.0 kHz
    Frame rate : 93.750 FPS (512 SPF)
    Bit depth : 24 bits
    Compression mode : Lossless
    Stream size : 4.27 GiB (5%)
    Title : DTS-HD MA 7.1
    Language : English
    Default : No
    Forced : No

    Audio #3
    ID : 4
    ID in the original source medium : 4352 (0x1100)
    Format : AC-3
    Format/Info : Audio Coding 3
    Commercial name : Dolby Digital
    Format settings : Dolby Surround EX
    Codec ID : A_AC3
    Duration : 2 h 35 min
    Bit rate mode : Constant
    Bit rate : 448 kb/s
    Channel(s) : 6 channels
    Channel layout : L R C LFE Ls Rs
    Sampling rate : 48.0 kHz
    Frame rate : 31.250 FPS (1536 SPF)
    Compression mode : Lossy
    Stream size : 498 MiB (1%)
    Title : DD 5.1
    Language : English
    Service kind : Complete Main
    Default : No
    Forced : No
    Original source medium : Blu-ray

    Audio #4
    ID : 5
    ID in the original source medium : 4353 (0x1101)
    Format : AC-3
    Format/Info : Audio Coding 3
    Commercial name : Dolby Digital
    Codec ID : A_AC3
    Duration : 2 h 35 min
    Bit rate mode : Constant
    Bit rate : 448 kb/s
    Channel(s) : 6 channels
    Channel layout : L R C LFE Ls Rs
    Sampling rate : 48.0 kHz
    Frame rate : 31.250 FPS (1536 SPF)
    Compression mode : Lossy
    Stream size : 498 MiB (1%)
    Title : DD 5.1
    Language : English
    Service kind : Complete Main
    Default : No
    Forced : No
    Original source medium : Blu-ray

    Audio #5
    ID : 6
    ID in the original source medium : 4354 (0x1102)
    Format : AC-3
    Format/Info : Audio Coding 3
    Commercial name : Dolby Digital
    Codec ID : A_AC3
    Duration : 2 h 35 min
    Bit rate mode : Constant
    Bit rate : 448 kb/s
    Channel(s) : 6 channels
    Channel layout : L R C LFE Ls Rs
    Sampling rate : 48.0 kHz
    Frame rate : 31.250 FPS (1536 SPF)
    Compression mode : Lossy
    Stream size : 498 MiB (1%)
    Title : DD 5.1
    Language : English
    Service kind : Complete Main
    Default : No
    Forced : No
    Original source medium : Blu-ray

    Audio #6
    ID : 7
    ID in the original source medium : 4355 (0x1103)
    Format : AC-3
    Format/Info : Audio Coding 3
    Commercial name : Dolby Digital
    Codec ID : A_AC3
    Duration : 2 h 35 min
    Bit rate mode : Constant
    Bit rate : 448 kb/s
    Channel(s) : 6 channels
    Channel layout : L R C LFE Ls Rs
    Sampling rate : 48.0 kHz
    Frame rate : 31.250 FPS (1536 SPF)
    Compression mode : Lossy
    Stream size : 498 MiB (1%)
    Title : DD 5.1
    Language : English
    Service kind : Complete Main
    Default : No
    Forced : No
    Original source medium : Blu-ray

    Audio #7
    ID : 8
    ID in the original source medium : 4356 (0x1104)
    Format : AC-3
    Format/Info : Audio Coding 3
    Commercial name : Dolby Digital
    Codec ID : A_AC3
    Duration : 2 h 35 min
    Bit rate mode : Constant
    Bit rate : 448 kb/s
    Channel(s) : 6 channels
    Channel layout : L R C LFE Ls Rs
    Sampling rate : 48.0 kHz
    Frame rate : 31.250 FPS (1536 SPF)
    Compression mode : Lossy
    Stream size : 498 MiB (1%)
    Title : DD 5.1
    Language : French
    Service kind : Complete Main
    Default : No
    Forced : No
    Original source medium : Blu-ray

    Audio #8
    ID : 9
    ID in the original source medium : 4357 (0x1105)
    Format : MLP FBA 16-ch
    Format/Info : Meridian Lossless Packing FBA with 16-channel presentation
    Commercial name : Dolby TrueHD with Dolby Atmos
    Codec ID : A_TRUEHD
    Duration : 2 h 35 min
    Bit rate mode : Variable
    Bit rate : 3 243 kb/s
    Maximum bit rate : 5 547 kb/s
    Channel(s) : 8 channels
    Channel layout : L R C LFE Ls Rs Lb Rb
    Sampling rate : 48.0 kHz
    Frame rate : 1 200.000 FPS (40 SPF)
    Bit depth : 24 bits
    Compression mode : Lossless
    Stream size : 3.52 GiB (4%)
    Title : TrueHD 7.1 Atmos
    Language : German
    Default : No
    Forced : No
    Original source medium : Blu-ray
    Number of dynamic objects : 11
    Bed channel count : 1 channel
    Bed channel configuration : LFE

    Audio #9
    ID : 10
    ID in the original source medium : 4357 (0x1105)
    Format : AC-3
    Format/Info : Audio Coding 3
    Commercial name : Dolby Digital
    Format settings : Dolby Surround EX
    Codec ID : A_AC3
    Duration : 2 h 35 min
    Bit rate mode : Constant
    Bit rate : 448 kb/s
    Channel(s) : 6 channels
    Channel layout : L R C LFE Ls Rs
    Sampling rate : 48.0 kHz
    Frame rate : 31.250 FPS (1536 SPF)
    Compression mode : Lossy
    Stream size : 498 MiB (1%)
    Title : DD 5.1
    Language : German
    Service kind : Complete Main
    Default : No
    Forced : No
    Original source medium : Blu-ray

    Audio #10
    ID : 11
    ID in the original source medium : 4358 (0x1106)
    Format : AC-3
    Format/Info : Audio Coding 3
    Commercial name : Dolby Digital
    Codec ID : A_AC3
    Duration : 2 h 35 min
    Bit rate mode : Constant
    Bit rate : 448 kb/s
    Channel(s) : 6 channels
    Channel layout : L R C LFE Ls Rs
    Sampling rate : 48.0 kHz
    Frame rate : 31.250 FPS (1536 SPF)
    Compression mode : Lossy
    Stream size : 498 MiB (1%)
    Title : DD 5.1
    Language : German
    Service kind : Complete Main
    Default : No
    Forced : No
    Original source medium : Blu-ray

    Audio #11
    ID : 12
    ID in the original source medium : 4359 (0x1107)
    Format : AC-3
    Format/Info : Audio Coding 3
    Commercial name : Dolby Digital
    Format settings : Dolby Surround
    Codec ID : A_AC3
    Duration : 2 h 35 min
    Bit rate mode : Constant
    Bit rate : 192 kb/s
    Channel(s) : 2 channels
    Channel layout : L R
    Sampling rate : 48.0 kHz
    Frame rate : 31.250 FPS (1536 SPF)
    Compression mode : Lossy
    Stream size : 213 MiB (0%)
    Title : DD 2.0
    Language : German
    Service kind : Complete Main
    Default : No
    Forced : No
    Original source medium : Blu-ray

    Audio #12
    ID : 13
    ID in the original source medium : 4360 (0x1108)
    Format : MLP FBA 16-ch
    Format/Info : Meridian Lossless Packing FBA with 16-channel presentation
    Commercial name : Dolby TrueHD with Dolby Atmos
    Codec ID : A_TRUEHD
    Duration : 2 h 35 min
    Bit rate mode : Variable
    Bit rate : 3 261 kb/s
    Maximum bit rate : 5 283 kb/s
    Channel(s) : 8 channels
    Channel layout : L R C LFE Ls Rs Lb Rb
    Sampling rate : 48.0 kHz
    Frame rate : 1 200.000 FPS (40 SPF)
    Bit depth : 24 bits
    Compression mode : Lossless
    Stream size : 3.54 GiB (4%)
    Title : TrueHD 7.1 Atmos
    Language : Italian
    Default : No
    Forced : No
    Original source medium : Blu-ray
    Number of dynamic objects : 11
    Bed channel count : 1 channel
    Bed channel configuration : LFE

    Audio #13
    ID : 14
    ID in the original source medium : 4360 (0x1108)
    Format : AC-3
    Format/Info : Audio Coding 3
    Commercial name : Dolby Digital
    Format settings : Dolby Surround EX
    Codec ID : A_AC3
    Duration : 2 h 35 min
    Bit rate mode : Constant
    Bit rate : 448 kb/s
    Channel(s) : 6 channels
    Channel layout : L R C LFE Ls Rs
    Sampling rate : 48.0 kHz
    Frame rate : 31.250 FPS (1536 SPF)
    Compression mode : Lossy
    Stream size : 498 MiB (1%)
    Title : DD 5.1
    Language : Italian
    Service kind : Complete Main
    Default : No
    Forced : No
    Original source medium : Blu-ray

    Audio #14
    ID : 15
    ID in the original source medium : 4361 (0x1109)
    Format : AC-3
    Format/Info : Audio Coding 3
    Commercial name : Dolby Digital
    Codec ID : A_AC3
    Duration : 2 h 35 min
    Bit rate mode : Constant
    Bit rate : 448 kb/s
    Channel(s) : 6 channels
    Channel layout : L R C LFE Ls Rs
    Sampling rate : 48.0 kHz
    Frame rate : 31.250 FPS (1536 SPF)
    Compression mode : Lossy
    Stream size : 498 MiB (1%)
    Title : DD 5.1
    Language : Italian
    Service kind : Complete Main
    Default : No
    Forced : No
    Original source medium : Blu-ray

    Audio #15
    ID : 16
    ID in the original source medium : 4362 (0x110A)
    Format : AC-3
    Format/Info : Audio Coding 3
    Commercial name : Dolby Digital
    Codec ID : A_AC3
    Duration : 2 h 35 min
    Bit rate mode : Constant
    Bit rate : 448 kb/s
    Channel(s) : 6 channels
    Channel layout : L R C LFE Ls Rs
    Sampling rate : 48.0 kHz
    Frame rate : 31.250 FPS (1536 SPF)
    Compression mode : Lossy
    Stream size : 498 MiB (1%)
    Title : DD 5.1
    Language : Spanish
    Service kind : Complete Main
    Default : No
    Forced : No
    Original source medium : Blu-ray

    Audio #16
    ID : 17
    ID in the original source medium : 4363 (0x110B)
    Format : AC-3
    Format/Info : Audio Coding 3
    Commercial name : Dolby Digital
    Codec ID : A_AC3
    Duration : 2 h 35 min
    Bit rate mode : Constant
    Bit rate : 448 kb/s
    Channel(s) : 6 channels
    Channel layout : L R C LFE Ls Rs
    Sampling rate : 48.0 kHz
    Frame rate : 31.250 FPS (1536 SPF)
    Compression mode : Lossy
    Stream size : 498 MiB (1%)
    Title : DD 5.1
    Language : Spanish
    Service kind : Complete Main
    Default : No
    Forced : No
    Original source medium : Blu-ray

    Audio #17
    ID : 18
    ID in the original source medium : 4364 (0x110C)
    Format : AC-3
    Format/Info : Audio Coding 3
    Commercial name : Dolby Digital
    Codec ID : A_AC3
    Duration : 2 h 35 min
    Bit rate mode : Constant
    Bit rate : 448 kb/s
    Channel(s) : 6 channels
    Channel layout : L R C LFE Ls Rs
    Sampling rate : 48.0 kHz
    Frame rate : 31.250 FPS (1536 SPF)
    Compression mode : Lossy
    Stream size : 498 MiB (1%)
    Title : DD 5.1
    Language : Hindi
    Service kind : Complete Main
    Default : No
    Forced : No
    Original source medium : Blu-ray

    Text #1
    ID : 19
    Format : UTF-8
    Codec ID : S_TEXT/UTF8
    Codec ID/Info : UTF-8 Plain Text
    Duration : 2 h 25 min
    Bit rate : 31 b/s
    Count of elements : 1300
    Stream size : 33.8 KiB (0%)
    Language : English
    Default : Yes
    Forced : No

    Text #2
    ID : 20
    Format : UTF-8
    Codec ID : S_TEXT/UTF8
    Codec ID/Info : UTF-8 Plain Text
    Duration : 2 h 26 min
    Bit rate : 41 b/s
    Count of elements : 1686
    Stream size : 44.1 KiB (0%)
    Title : SDH
    Language : English
    Default : No
    Forced : No

    Text #3
    ID : 21
    ID in the original source medium : 4768 (0x12A0)
    Format : PGS
    Muxing mode : zlib
    Codec ID : S_HDMV/PGS
    Codec ID/Info : Picture based subtitle format used on BDs/HD-DVDs
    Duration : 2 h 26 min
    Bit rate : 26.0 kb/s
    Count of elements : 3406
    Stream size : 27.3 MiB (0%)
    Language : English
    Default : No
    Forced : No
    Original source medium : Blu-ray

    Text #4
    ID : 22
    ID in the original source medium : 4769 (0x12A1)
    Format : PGS
    Muxing mode : zlib
    Codec ID : S_HDMV/PGS
    Codec ID/Info : Picture based subtitle format used on BDs/HD-DVDs
    Duration : 2 h 35 min
    Bit rate : 18.4 kb/s
    Count of elements : 2498
    Stream size : 20.4 MiB (0%)
    Language : French
    Default : No
    Forced : No
    Original source medium : Blu-ray

    Text #5
    ID : 23
    ID in the original source medium : 4770 (0x12A2)
    Format : PGS
    Muxing mode : zlib
    Codec ID : S_HDMV/PGS
    Codec ID/Info : Picture based subtitle format used on BDs/HD-DVDs
    Duration : 2 h 35 min
    Bit rate : 24.1 kb/s
    Count of elements : 2560
    Stream size : 26.8 MiB (0%)
    Language : German
    Default : No
    Forced : No
    Original source medium : Blu-ray

    Text #6
    ID : 24
    ID in the original source medium : 4771 (0x12A3)
    Format : PGS
    Muxing mode : zlib
    Codec ID : S_HDMV/PGS
    Codec ID/Info : Picture based subtitle format used on BDs/HD-DVDs
    Duration : 2 h 27 min
    Bit rate : 27.2 kb/s
    Count of elements : 3510
    Stream size : 28.7 MiB (0%)
    Language : Italian
    Default : No
    Forced : No
    Original source medium : Blu-ray

    Text #7
    ID : 25
    ID in the original source medium : 4772 (0x12A4)
    Format : PGS
    Muxing mode : zlib
    Codec ID : S_HDMV/PGS
    Codec ID/Info : Picture based subtitle format used on BDs/HD-DVDs
    Duration : 2 h 35 min
    Bit rate : 19.9 kb/s
    Count of elements : 2452
    Stream size : 22.1 MiB (0%)
    Language : Spanish
    Default : No
    Forced : No
    Original source medium : Blu-ray

    Text #8
    ID : 26
    ID in the original source medium : 4773 (0x12A5)
    Format : PGS
    Muxing mode : zlib
    Codec ID : S_HDMV/PGS
    Codec ID/Info : Picture based subtitle format used on BDs/HD-DVDs
    Duration : 2 h 35 min
    Bit rate : 19.8 kb/s
    Count of elements : 2360
    Stream size : 21.9 MiB (0%)
    Language : Chinese
    Default : No
    Forced : No
    Original source medium : Blu-ray

    Text #9
    ID : 27
    ID in the original source medium : 4774 (0x12A6)
    Format : PGS
    Muxing mode : zlib
    Codec ID : S_HDMV/PGS
    Codec ID/Info : Picture based subtitle format used on BDs/HD-DVDs
    Duration : 2 h 35 min
    Bit rate : 18.3 kb/s
    Count of elements : 2514
    Stream size : 20.3 MiB (0%)
    Language : Chinese
    Default : No
    Forced : No
    Original source medium : Blu-ray

    Text #10
    ID : 28
    ID in the original source medium : 4775 (0x12A7)
    Format : PGS
    Muxing mode : zlib
    Codec ID : S_HDMV/PGS
    Codec ID/Info : Picture based subtitle format used on BDs/HD-DVDs
    Duration : 2 h 35 min
    Bit rate : 12.7 kb/s
    Count of elements : 2498
    Stream size : 14.1 MiB (0%)
    Language : Korean
    Default : No
    Forced : No
    Original source medium : Blu-ray

    Text #11
    ID : 29
    ID in the original source medium : 4776 (0x12A8)
    Format : PGS
    Muxing mode : zlib
    Codec ID : S_HDMV/PGS
    Codec ID/Info : Picture based subtitle format used on BDs/HD-DVDs
    Duration : 2 h 35 min
    Bit rate : 19.8 kb/s
    Count of elements : 2512
    Stream size : 22.0 MiB (0%)
    Language : Spanish
    Default : No
    Forced : No
    Original source medium : Blu-ray

    Text #12
    ID : 30
    ID in the original source medium : 4777 (0x12A9)
    Format : PGS
    Muxing mode : zlib
    Codec ID : S_HDMV/PGS
    Codec ID/Info : Picture based subtitle format used on BDs/HD-DVDs
    Duration : 2 h 35 min
    Bit rate : 17.2 kb/s
    Count of elements : 1778
    Stream size : 19.1 MiB (0%)
    Language : Danish
    Default : No
    Forced : No
    Original source medium : Blu-ray

    Text #13
    ID : 31
    ID in the original source medium : 4778 (0x12AA)
    Format : PGS
    Muxing mode : zlib
    Codec ID : S_HDMV/PGS
    Codec ID/Info : Picture based subtitle format used on BDs/HD-DVDs
    Duration : 2 h 35 min
    Bit rate : 19.8 kb/s
    Count of elements : 2528
    Stream size : 21.9 MiB (0%)
    Language : Finnish
    Default : No
    Forced : No
    Original source medium : Blu-ray

    Text #14
    ID : 32
    ID in the original source medium : 4779 (0x12AB)
    Format : PGS
    Muxing mode : zlib
    Codec ID : S_HDMV/PGS
    Codec ID/Info : Picture based subtitle format used on BDs/HD-DVDs
    Duration : 2 h 35 min
    Bit rate : 20.3 kb/s
    Count of elements : 2492
    Stream size : 22.5 MiB (0%)
    Language : Greek
    Default : No
    Forced : No
    Original source medium : Blu-ray

    Text #15
    ID : 33
    ID in the original source medium : 4780 (0x12AC)
    Format : PGS
    Muxing mode : zlib
    Codec ID : S_HDMV/PGS
    Codec ID/Info : Picture based subtitle format used on BDs/HD-DVDs
    Duration : 2 h 35 min
    Bit rate : 17.8 kb/s
    Count of elements : 1918
    Stream size : 19.8 MiB (0%)
    Language : Norwegian
    Default : No
    Forced : No
    Original source medium : Blu-ray

    Text #16
    ID : 34
    ID in the original source medium : 4781 (0x12AD)
    Format : PGS
    Muxing mode : zlib
    Codec ID : S_HDMV/PGS
    Codec ID/Info : Picture based subtitle format used on BDs/HD-DVDs
    Duration : 2 h 35 min
    Bit rate : 17.6 kb/s
    Count of elements : 1926
    Stream size : 19.6 MiB (0%)
    Language : Swedish
    Default : No
    Forced : No
    Original source medium : Blu-ray

    Text #17
    ID : 35
    ID in the original source medium : 4782 (0x12AE)
    Format : PGS
    Muxing mode : zlib
    Codec ID : S_HDMV/PGS
    Codec ID/Info : Picture based subtitle format used on BDs/HD-DVDs
    Duration : 2 h 16 min
    Bit rate : 963 b/s
    Count of elements : 100
    Stream size : 965 KiB (0%)
    Title : FORCED
    Language : French
    Default : No
    Forced : No
    Original source medium : Blu-ray

    Text #18
    ID : 36
    ID in the original source medium : 4783 (0x12AF)
    Format : PGS
    Muxing mode : zlib
    Codec ID : S_HDMV/PGS
    Codec ID/Info : Picture based subtitle format used on BDs/HD-DVDs
    Duration : 2 h 16 min
    Bit rate : 1 007 b/s
    Count of elements : 96
    Stream size : 1 009 KiB (0%)
    Title : FORCED
    Language : German
    Default : No
    Forced : No
    Original source medium : Blu-ray

    Text #19
    ID : 37
    ID in the original source medium : 4784 (0x12B0)
    Format : PGS
    Muxing mode : zlib
    Codec ID : S_HDMV/PGS
    Codec ID/Info : Picture based subtitle format used on BDs/HD-DVDs
    Duration : 2 h 27 min
    Bit rate : 851 b/s
    Count of elements : 102
    Stream size : 920 KiB (0%)
    Title : FORCED
    Language : Italian
    Default : No
    Forced : No
    Original source medium : Blu-ray

    Text #20
    ID : 38
    ID in the original source medium : 4785 (0x12B1)
    Format : PGS
    Muxing mode : zlib
    Codec ID : S_HDMV/PGS
    Codec ID/Info : Picture based subtitle format used on BDs/HD-DVDs
    Duration : 2 h 27 min
    Bit rate : 877 b/s
    Count of elements : 102
    Stream size : 948 KiB (0%)
    Title : FORCED
    Language : Spanish
    Default : No
    Forced : No
    Original source medium : Blu-ray

    Text #21
    ID : 39
    ID in the original source medium : 4786 (0x12B2)
    Format : PGS
    Muxing mode : zlib
    Codec ID : S_HDMV/PGS
    Codec ID/Info : Picture based subtitle format used on BDs/HD-DVDs
    Duration : 2 h 27 min
    Bit rate : 866 b/s
    Count of elements : 102
    Stream size : 936 KiB (0%)
    Title : FORCED
    Language : Spanish
    Default : No
    Forced : No
    Original source medium : Blu-ray

    Text #22
    ID : 40
    ID in the original source medium : 4787 (0x12B3)
    Format : PGS
    Muxing mode : zlib
    Codec ID : S_HDMV/PGS
    Codec ID/Info : Picture based subtitle format used on BDs/HD-DVDs
    Duration : 2 h 16 min
    Bit rate : 685 b/s
    Count of elements : 100
    Stream size : 686 KiB (0%)
    Title : FORCED
    Language : Hindi
    Default : No
    Forced : No
    Original source medium : Blu-ray

    Menu
    00:00:00.000 : en:Chapter 01
    00:03:15.987 : en:Chapter 02
    00:12:54.774 : en:Chapter 03
    00:22:00.569 : en:Chapter 04
    00:29:16.755 : en:Chapter 05
    00:39:10.931 : en:Chapter 06
    00:47:19.795 : en:Chapter 07
    00:56:53.493 : en:Chapter 08
    01:06:50.381 : en:Chapter 09
    01:16:44.891 : en:Chapter 10
    01:26:00.655 : en:Chapter 11
    01:36:00.087 : en:Chapter 12
    01:45:09.469 : en:Chapter 13
    01:53:50.323 : en:Chapter 14
    02:03:38.411 : en:Chapter 15
    02:12:13.008 : en:Chapter 16
    02:20:45.770 : en:Chapter 17
    02:27:27.630 : en:Chapter 18
     
    traitimtraoem cảm ơn bài này.
  3. xemaydinh

    xemaydinh Tem

    Tham gia ngày:
    3/7/10
    Bài viết:
    32,882
    Đã được cảm ơn:
    147,422
  4. xemaydinh

    xemaydinh Tem

    Tham gia ngày:
    3/7/10
    Bài viết:
    32,882
    Đã được cảm ơn:
    147,422
  5. xemaydinh

    xemaydinh Tem

    Tham gia ngày:
    3/7/10
    Bài viết:
    32,882
    Đã được cảm ơn:
    147,422
    Dune 2021 ViE 2160p UHD Blu-ray Remux DoVi HEVC TrueHD 7.1-LsD

    Hành tinh cát

    (Thuyết minh+sub việt mux sẵn)

    [​IMG]


    Dune xoay quanh câu chuyện về Paul Atreides một chàng trai trẻ đầy tài năng và thông minh anh được sinh ra trong cuộc sống vô cùng tuyệt vời và vượt khỏi tầm hiểu biết của anh, không những thế anh còn phải du hành đến một hành tinh đầy nguy hiểm nhất trong vũ trụ để có thể bảo vệ an toàn cuộc sống trong tương lai của gia đình và người thân của anh. Nhưng những thế lực tàn ác đã trỗi dậy và gây xung đột về sự cung cấp tài nguyên cho sự tồn tại của hành tinh. Và chỉ có những người dũng cảm vượt qua được nỗi sợ hãi mới có thể giữ được mạng sống trên hành tinh này.

    RELEASE iNFO
    RELEASE NAME..: Dune.2021.ViE.2160p.Remux.DoVi.HEVC.TrueHD.7.1-LsD
    SOURCE NAME...: Dune 2021 2160p EUR UHD Blu-ray HEVC TrueHD 7.1 Atmos DV-DDN
    RELEASE SIZE..: 70.0 GiB
    ENCODED DATE..: UTC 2021-12-11 07:11:25
    RUNTIME.......: 2 h 35 min 26 s 656 ms
    VIDEO CODEC...: HEVC | Main [email protected]@High | Dolby Vision / SMPTE ST 2086 | Blu-ray / HDR10
    BITRATE ......: 59.8 Mb/s
    RESOLUTION....: 3840 x 2160
    ASPECT RATIO..: 1.778
    FRAMERATE.....: 23.976 fps
    AUDIO #1......: English | Dolby TrueHD with Dolby Atmos | 8 channels | 3 243 kb/s | 48.0 kHz | Dolby TrueHD Atmos 7.1
    AUDIO #2......: English | Dolby Digital | 6 channels | 448 kb/s | 48.0 kHz | Dolby Digital EX 5.1 | Compatibily track
    AUDIO #3......: Vietnamese | Dolby Digital | 6 channels | 640 kb/s | 48.0 kHz | Dolby Digital 5.1 | TVHAY | Synced by LsD
    SUBTITLES.....: Danish (PGS) | German (PGS) | Greek (PGS) | English (PGS) | Spanish (PGS) | Spanish (PGS) | Finnish (PGS) | French (PGS) | Italian (PGS) | Korean (PGS) | Norwegian (PGS) | Swedish (PGS) | Vietnamese (PGS)




    bản 1984 https://www.hdvietnam.com/threads/h...y-remux-avc-dts-hd-ma-5-1-fgt-xu-cat.1724419/

    mhd https://www.hdvietnam.com/threads/h...p-bluray-dd5-1x264-xmd-hanh-tinh-cat.1739781/

    720p https://www.hdvietnam.com/threads/hanh-dong-dune-2021-720p-bluray-x264-dts-hanh-tinh-cat.1739782/

    1080p https://www.hdvietnam.com/threads/h...-truehd-7-1-atmos-x264-hanh-tinh-cat.1739678/

    4K https://www.hdvietnam.com/threads/4...-ma-truehd-7-1-atmos-s-hanh-tinh-cat.1740430/

    Thuyết minh

    Remux https://www.hdvietnam.com/threads/h...p-avc-truehd-7-1-atmos-hanh-tinh-cat.1739772/

    Remux 4K https://www.hdvietnam.com/threads/r...tmos-fgt-hanh-tinh-cat.1740222/#post-10719755

    ISO 3D https://www.hdvietnam.com/threads/i...-reencoded-mvc-dl-zman-hanh-tinh-cat.1739954/

    ISO https://www.hdvietnam.com/threads/i...tmos-7-1-hanh-tinh-cat.1740431/#post-10720058

    ISO 4K https://www.hdvietnam.com/threads/i...-hevc-truehd-atmos-7-1-hanh-tinh-cat.1740941/
     

Chia sẻ trang này