[Fshare] [Remux 4K |H. Động] Monsters of Man 2020 2160p BluRay REMUX HEVC DTS-HD MA.7.1-FGT- Quái Vật Của Con

Thảo luận trong 'Bluray Remux 4K' bắt đầu bởi xemaydinh, 4/12/21.

  1. xemaydinh

    xemaydinh Tem

    Tham gia ngày:
    3/7/10
    Bài viết:
    32,901
    Đã được cảm ơn:
    147,553
    Monsters of Man 2020 2160p BluRay REMUX HEVC DTS-HD MA.7.1-FGT

    Quái Vật Của Con Người

    [​IMG]





    Một công ty chế tạo người máy đang cạnh tranh để giành được một hợp đồng quân sự béo bở hợp tác với một điệp viên CIA tham nhũng để tiến hành một cuộc thử nghiệm thực địa bất hợp pháp. Họ triển khai bốn robot nguyên mẫu được vũ khí hóa vào một trại sản xuất ma túy bị nghi ngờ ở Tam giác vàng, giả định rằng họ sẽ giết những kẻ chạy trốn ma túy mà không bỏ sót một ai. Sáu bác sĩ trong một nhiệm vụ nhân đạo chứng kiến cuộc tàn sát tàn bạo và trở thành mục tiêu hàng đầu ...

    Video

    ID : 1
    ID in the original source medium : 4113 (0x1011)
    Format : HEVC
    Format/Info : High Efficiency Video Coding
    Format profile : Main [email protected]@High
    HDR format : SMPTE ST 2086, HDR10 compatible
    Codec ID : V_MPEGH/ISO/HEVC
    Duration : 2 h 11 min
    Bit rate : 50.0 Mb/s
    Width : 3 840 pixels
    Height : 2 160 pixels
    Display aspect ratio : 16:9
    Frame rate mode : Constant
    Frame rate : 24.000 FPS
    Standard : Component
    Color space : YUV
    Chroma subsampling : 4:2:0 (Type 2)
    Bit depth : 10 bits
    Bits/(Pixel*Frame) : 0.251
    Stream size : 46.0 GiB (85%)
    Language : English
    Default : No
    Forced : No
    Color range : Limited
    Color primaries : BT.2020
    Transfer characteristics : PQ
    Matrix coefficients : BT.2020 non-constant
    Mastering display color primaries : Display P3
    Mastering display luminance : min: 0.0050 cd/m2, max: 1000 cd/m2
    Maximum Content Light Level : 996 cd/m2
    Maximum Frame-Average Light Level : 269 cd/m2
    Original source medium : Blu-ray

    Audio #1
    ID : 2
    ID in the original source medium : 4352 (0x1100)
    Format : DTS XLL
    Format/Info : Digital Theater Systems
    Commercial name : DTS-HD Master Audio
    Codec ID : A_DTS
    Duration : 2 h 11 min
    Bit rate mode : Variable
    Bit rate : 6 005 kb/s
    Channel(s) : 8 channels
    Channel layout : C L R LFE Lb Rb Lss Rss
    Sampling rate : 48.0 kHz
    Frame rate : 93.750 FPS (512 SPF)
    Bit depth : 24 bits
    Compression mode : Lossless
    Stream size : 5.53 GiB (10%)
    Title : DTS-HD MA 5.1
    Language : English
    Default : Yes
    Forced : No
    Original source medium : Blu-ray

    Audio #2
    ID : 3
    Format : AC-3
    Format/Info : Audio Coding 3
    Commercial name : Dolby Digital
    Codec ID : A_AC3
    Duration : 2 h 11 min
    Bit rate mode : Constant
    Bit rate : 640 kb/s
    Channel(s) : 6 channels
    Channel layout : L R C LFE Ls Rs
    Sampling rate : 48.0 kHz
    Frame rate : 31.250 FPS (1536 SPF)
    Compression mode : Lossy
    Stream size : 604 MiB (1%)
    Title : DD 5.1
    Language : English
    Service kind : Complete Main
    Default : No
    Forced : No

    Audio #3
    ID : 4
    ID in the original source medium : 4353 (0x1101)
    Format : DTS XLL
    Format/Info : Digital Theater Systems
    Commercial name : DTS-HD Master Audio
    Codec ID : A_DTS
    Duration : 2 h 11 min
    Bit rate mode : Variable
    Bit rate : 2 496 kb/s
    Channel(s) : 6 channels
    Channel layout : C L R Ls Rs LFE
    Sampling rate : 48.0 kHz
    Frame rate : 93.750 FPS (512 SPF)
    Bit depth : 16 bits
    Compression mode : Lossless
    Stream size : 2.30 GiB (4%)
    Title : DTS-HD MA 5.1
    Language : English
    Default : No
    Forced : No
    Original source medium : Blu-ray

    Text #1
    ID : 5
    Format : UTF-8
    Codec ID : S_TEXT/UTF8
    Codec ID/Info : UTF-8 Plain Text
    Duration : 1 h 51 min
    Bit rate : 1 b/s
    Count of elements : 49
    Stream size : 952 Bytes (0%)
    Title : FORCED
    Language : English
    Default : No
    Forced : Yes

    Text #2
    ID : 6
    Format : UTF-8
    Codec ID : S_TEXT/UTF8
    Codec ID/Info : UTF-8 Plain Text
    Duration : 2 h 10 min
    Bit rate : 43 b/s
    Count of elements : 1615
    Stream size : 42.0 KiB (0%)
    Language : English
    Default : Yes
    Forced : No

    Text #3
    ID : 7
    Format : UTF-8
    Codec ID : S_TEXT/UTF8
    Codec ID/Info : UTF-8 Plain Text
    Duration : 2 h 11 min
    Bit rate : 55 b/s
    Count of elements : 2116
    Stream size : 53.0 KiB (0%)
    Title : SDH
    Language : English
    Default : No
    Forced : No

    Text #4
    ID : 8
    ID in the original source medium : 4768 (0x12A0)
    Format : PGS
    Muxing mode : zlib
    Codec ID : S_HDMV/PGS
    Codec ID/Info : Picture based subtitle format used on BDs/HD-DVDs
    Duration : 2 h 5 min
    Bit rate : 25.4 kb/s
    Count of elements : 1968
    Stream size : 22.7 MiB (0%)
    Language : Dutch
    Default : No
    Forced : No
    Original source medium : Blu-ray

    Menu
    00:00:00.000 : en:Chapter 01
    00:15:23.000 : en:Chapter 02
    00:24:40.541 : en:Chapter 03
    00:34:05.416 : en:Chapter 04
    00:42:30.291 : en:Chapter 05
    00:50:47.041 : en:Chapter 06
    01:03:32.625 : en:Chapter 07
    01:13:45.708 : en:Chapter 08
    01:26:40.625 : en:Chapter 09
    01:39:59.666 : en:Chapter 10
    01:51:24.458 : en:Chapter 11
    02:06:16.625 : en:Chapter 12



    mhd

    720p

    1080p

    4k https://www.hdvietnam.com/threads/4...t-hdr-dts-hd-ma-7-1-quai-vat-cua-con.1739942/

    Thuyết minh

    Remux 4K https://www.hdvietnam.com/threads/r...c-dts-hd-ma-7-1-fgt-quai-vat-cua-con.1739833/

    ISO
     
    Chỉnh sửa cuối: 4/12/21
    phattai9su and viperdqn like this.

Chia sẻ trang này