[Fshare] [Remux 4K |Hành Động] The Running Man 1987 2160p BluRay REMUX HEVC DTS-HD MA.7.1-Chạy Trốn Tử Thần

Thảo luận trong 'Bluray Remux 4K' bắt đầu bởi xemaydinh, 26/10/21.

  1. xemaydinh

    xemaydinh Tem

    Tham gia ngày:
    3/7/10
    Bài viết:
    31,545
    Đã được cảm ơn:
    141,746
    The Running Man 1987 2160p BluRay REMUX HEVC DTS-HD MA.7.1-FGT

    Chạy Trốn Tử Thần
    [​IMG]





    Nước Mỹ trong tương lai, kinh tế sụp đổ giới tướng lãnh quân sự chóp bu thừa cơ tạo cuộc chính biến lên cầm quyền.

    Họ đóng cửa biên giới, cắt đứt tất cả quan hệ ngoại giao, kiểm duyệt chặt chẻ báo chí truyền thông... Sự tự do giờ chỉ là truyện cổ tích.Những sự phản kháng dù âm thầm hay công khai đều bị chính quyền thẳng tay đè bẹp.

    Ben Richards 1 sĩ quan cảnh sát đầy triển vọng được yêu cầu xả súng vào đám dân nghèo đang biểu tình chống chính phủ, không nỡ xuống tay với đồng bào bất bạo động, anh lập tức bị bắt và tống giam, chính quyền sau đó còn thông báo anh chính là người thảm sát đám dân nghèo... Không cam chịu phận tù khổ sai và phải lao động như thời trung cổ, anh cùng đám tù nhân quyết phá ngục tìm tự do bên ngoài nước Mỹ...
    Click to expand...



    Video
    ID : 1
    ID in the original source medium : 4113 (0x1011)
    Format : HEVC
    Format/Info : High Efficiency Video Coding
    Format profile : Main [email protected]@High
    HDR format : Dolby Vision, Version 1.0, dvhe.07.06, BL+EL+RPU, Blu-ray compatible / SMPTE ST 2086, HDR10 compatible
    Codec ID : V_MPEGH/ISO/HEVC
    Duration : 1 h 40 min
    Bit rate : 73.2 Mb/s
    Width : 3 840 pixels
    Height : 2 160 pixels
    Display aspect ratio : 16:9
    Frame rate mode : Constant
    Frame rate : 23.976 (24000/1001) FPS
    Color space : YUV
    Chroma subsampling : 4:2:0 (Type 2)
    Bit depth : 10 bits
    Bits/(Pixel*Frame) : 0.368
    Stream size : 51.5 GiB (85%)
    Language : English
    Default : No
    Forced : No
    Color range : Limited
    Color primaries : BT.2020
    Transfer characteristics : PQ
    Matrix coefficients : BT.2020 non-constant
    Mastering display color primaries : Display P3
    Mastering display luminance : min: 0.0050 cd/m2, max: 4000 cd/m2
    Maximum Content Light Level : 3966 cd/m2
    Maximum Frame-Average Light Level : 523 cd/m2
    Original source medium : Blu-ray

    Audio #1
    ID : 2
    ID in the original source medium : 4355 (0x1103)
    Format : DTS ES XLL
    Format/Info : Digital Theater Systems
    Commercial name : DTS-HD Master Audio
    Codec ID : A_DTS
    Duration : 1 h 40 min
    Bit rate mode : Variable
    Bit rate : 5 148 kb/s
    Channel(s) : 8 channels
    Channel layout : C L R Ls Rs LFE Lb Rb
    Sampling rate : 48.0 kHz
    Frame rate : 93.750 FPS (512 SPF)
    Bit depth : 24 bits
    Compression mode : Lossless
    Stream size : 3.63 GiB (6%)
    Title : DTS-HD MA 7.1
    Language : English
    Default : Yes
    Forced : No
    Original source medium : Blu-ray

    Audio #2
    ID : 3
    Format : AC-3
    Format/Info : Audio Coding 3
    Commercial name : Dolby Digital
    Codec ID : A_AC3
    Duration : 1 h 40 min
    Bit rate mode : Constant
    Bit rate : 640 kb/s
    Channel(s) : 6 channels
    Channel layout : L R C LFE Ls Rs
    Sampling rate : 48.0 kHz
    Frame rate : 31.250 FPS (1536 SPF)
    Compression mode : Lossy
    Stream size : 462 MiB (1%)
    Title : DD 5.1
    Language : English
    Service kind : Complete Main
    Default : No
    Forced : No

    Audio #3
    ID : 4
    ID in the original source medium : 4354 (0x1102)
    Format : PCM
    Format settings : Little / Signed
    Codec ID : A_PCM/INT/LIT
    Duration : 1 h 40 min
    Bit rate mode : Constant
    Bit rate : 2 304 kb/s
    Channel(s) : 2 channels
    Sampling rate : 48.0 kHz
    Frame rate : 30.000 FPS (1600 SPF)
    Bit depth : 24 bits
    Stream size : 1.62 GiB (3%)
    Title : LPCM 2.0
    Language : English
    Default : No
    Forced : No
    Original source medium : Blu-ray

    Audio #4
    ID : 5
    ID in the original source medium : 4353 (0x1101)
    Format : DTS XLL
    Format/Info : Digital Theater Systems
    Commercial name : DTS-HD Master Audio
    Codec ID : A_DTS
    Duration : 1 h 40 min
    Bit rate mode : Variable
    Bit rate : 2 586 kb/s
    Channel(s) : 6 channels
    Channel layout : C L R Ls Rs LFE
    Sampling rate : 48.0 kHz
    Frame rate : 93.750 FPS (512 SPF)
    Bit depth : 16 bits
    Compression mode : Lossless
    Stream size : 1.82 GiB (3%)
    Title : DTS-HD MA 7.1
    Language : German
    Default : No
    Forced : No
    Original source medium : Blu-ray

    Audio #5
    ID : 6
    ID in the original source medium : 4352 (0x1100)
    Format : PCM
    Format settings : Little / Signed
    Codec ID : A_PCM/INT/LIT
    Duration : 1 h 40 min
    Bit rate mode : Constant
    Bit rate : 1 536 kb/s
    Channel(s) : 2 channels
    Sampling rate : 48.0 kHz
    Frame rate : 30.000 FPS (1600 SPF)
    Bit depth : 16 bits
    Stream size : 1.08 GiB (2%)
    Title : LPCM 2.0
    Language : German
    Default : No
    Forced : No
    Original source medium : Blu-ray

    Audio #6
    ID : 7
    ID in the original source medium : 4356 (0x1104)
    Format : AC-3
    Format/Info : Audio Coding 3
    Commercial name : Dolby Digital
    Codec ID : A_AC3
    Duration : 1 h 40 min
    Bit rate mode : Constant
    Bit rate : 224 kb/s
    Channel(s) : 2 channels
    Channel layout : L R
    Sampling rate : 48.0 kHz
    Frame rate : 31.250 FPS (1536 SPF)
    Compression mode : Lossy
    Stream size : 162 MiB (0%)
    Title : DD 2.0
    Language : English
    Service kind : Complete Main
    Default : No
    Forced : No
    Original source medium : Blu-ray

    Audio #7
    ID : 8
    ID in the original source medium : 4357 (0x1105)
    Format : AC-3
    Format/Info : Audio Coding 3
    Commercial name : Dolby Digital
    Codec ID : A_AC3
    Duration : 1 h 40 min
    Bit rate mode : Constant
    Bit rate : 224 kb/s
    Channel(s) : 2 channels
    Channel layout : L R
    Sampling rate : 48.0 kHz
    Frame rate : 31.250 FPS (1536 SPF)
    Compression mode : Lossy
    Stream size : 162 MiB (0%)
    Title : DD 2.0
    Language : English
    Service kind : Complete Main
    Default : No
    Forced : No
    Original source medium : Blu-ray

    Text #1
    ID : 9
    Format : UTF-8
    Codec ID : S_TEXT/UTF8
    Codec ID/Info : UTF-8 Plain Text
    Duration : 1 h 38 min
    Bit rate : 54 b/s
    Count of elements : 1138
    Stream size : 39.3 KiB (0%)
    Title : SRT
    Language : English
    Default : Yes
    Forced : No

    Text #2
    ID : 10
    ID in the original source medium : 4769 (0x12A1)
    Format : PGS
    Muxing mode : zlib
    Codec ID : S_HDMV/PGS
    Codec ID/Info : Picture based subtitle format used on BDs/HD-DVDs
    Duration : 1 h 38 min
    Bit rate : 33.3 kb/s
    Count of elements : 2292
    Stream size : 23.4 MiB (0%)
    Language : English
    Default : No
    Forced : No
    Original source medium : Blu-ray

    Text #3
    ID : 11
    ID in the original source medium : 4768 (0x12A0)
    Format : PGS
    Muxing mode : zlib
    Codec ID : S_HDMV/PGS
    Codec ID/Info : Picture based subtitle format used on BDs/HD-DVDs
    Duration : 1 h 39 min
    Bit rate : 26.6 kb/s
    Count of elements : 1858
    Stream size : 18.9 MiB (0%)
    Title : FORCED
    Language : German
    Default : No
    Forced : No
    Original source medium : Blu-ray

    Text #4
    ID : 12
    ID in the original source medium : 4770 (0x12A2)
    Format : PGS
    Muxing mode : zlib
    Codec ID : S_HDMV/PGS
    Codec ID/Info : Picture based subtitle format used on BDs/HD-DVDs
    Duration : 1 h 40 min
    Bit rate : 43.6 kb/s
    Count of elements : 1928
    Stream size : 31.2 MiB (0%)
    Language : German
    Default : No
    Forced : No
    Original source medium : Blu-ray

    Text #5
    ID : 13
    ID in the original source medium : 4771 (0x12A3)
    Format : PGS
    Muxing mode : zlib
    Codec ID : S_HDMV/PGS
    Codec ID/Info : Picture based subtitle format used on BDs/HD-DVDs
    Duration : 1 h 40 min
    Bit rate : 49.2 kb/s
    Count of elements : 1936
    Stream size : 35.3 MiB (0%)
    Language : German
    Default : No
    Forced : No
    Original source medium : Blu-ray

    Menu
    00:00:00.000 : en:Chapter 01
    00:03:22.202 : en:Chapter 02
    00:13:41.028 : en:Chapter 03
    00:21:57.774 : en:Chapter 04
    00:29:00.739 : en:Chapter 05
    00:34:46.084 : en:Chapter 06
    00:40:24.797 : en:Chapter 07
    00:45:14.962 : en:Chapter 08
    00:50:00.914 : en:Chapter 09
    00:55:49.262 : en:Chapter 10
    01:02:37.378 : en:Chapter 11
    01:09:11.772 : en:Chapter 12
    01:16:41.096 : en:Chapter 13
    01:23:29.921 : en:Chapter 14
    01:29:39.957 : en:Chapter 15
    01:33:25.391 : en:Chapter 16
    01:40:42.828 : en:Chapter 17



    mhd

    720p

    1080p

    Thuyết minh

    Remux https://www.hdvietnam.com/threads/h...vc-dts-hd-ma-7-1-f-chay-tron-tu-than.1739321/

    Remux 4K https://www.hdvietnam.com/threads/r...hevc-dts-hd-ma-7-1-chay-tron-tu-than.1725813/

    ISO
     
    Chỉnh sửa cuối: 2/12/21 lúc 18:58
    cubhd and cuongnho like this.
  2. Đang tải...


  3. xemaydinh

    xemaydinh Tem

    Tham gia ngày:
    3/7/10
    Bài viết:
    31,545
    Đã được cảm ơn:
    141,746

Chia sẻ trang này