[Fshare] [Remux 4K |Hành động] The Suicide Squad 2021 2160p BluRay REMUX HEVC DTS-HD MA TrueHD.7.1 Atmos-FGT

Thảo luận trong 'Bluray Remux 4K' bắt đầu bởi xemaydinh, 19/10/21.

  1. xemaydinh

    xemaydinh Tem

    Tham gia ngày:
    3/7/10
    Bài viết:
    32,679
    Đã được cảm ơn:
    145,725
    The Suicide Squad 2021 2160p BluRay REMUX HEVC DTS-HD MA TrueHD.7.1 Atmos-FGT

    Điệp Vụ Cảm Tử
    [​IMG]


    Phim lấy bối cảnh giả tưởng tại đảo Corto Maltese (Nam Mỹ), quốc gia độc lập vừa trải qua đảo chính. Chế độ mới xây dựng cơ sở thí nghiệm Jotunheim, nghiên cứu Dự án Sao biển có nguy cơ hủy diệt Mỹ và thế giới. Để ngăn chặn, mật vụ Amanda Waller (Viola Davis) tập hợp các ác nhân nổi tiếng trong tù thành Đội đặc nhiệm X. Mỗi tên đều bị gắn bom ở cổ, nếu không tuân phục sẽ chết. Dưới sự chỉ huy của Rick Flag (Joel Kinnaman) và Bloodsport (Idris Elba), biệt đội cảm tử mới chia làm hai phe lên đường thực hiện nhiệm vụ.


    Video
    ID : 1
    ID in the original source medium : 4113 (0x1011)
    Format : HEVC
    Format/Info : High Efficiency Video Coding
    Format profile : Main [email protected]@High
    HDR format : Dolby Vision, Version 1.0, dvhe.07.06, BL+EL+RPU, Blu-ray compatible / SMPTE ST 2094 App 4, Version 1, HDR10+ Profile B compatible
    Codec ID : V_MPEGH/ISO/HEVC
    Duration : 2 h 12 min
    Bit rate : 65.2 Mb/s
    Width : 3 840 pixels
    Height : 2 160 pixels
    Display aspect ratio : 16:9
    Frame rate mode : Constant
    Frame rate : 23.976 (24000/1001) FPS
    Color space : YUV
    Chroma subsampling : 4:2:0 (Type 2)
    Bit depth : 10 bits
    Bits/(Pixel*Frame) : 0.328
    Stream size : 60.2 GiB (78%)
    Language : English
    Default : No
    Forced : No
    Color range : Limited
    Color primaries : BT.2020
    Transfer characteristics : PQ
    Matrix coefficients : BT.2020 non-constant
    Mastering display color primaries : Display P3
    Mastering display luminance : min: 0.0001 cd/m2, max: 1000 cd/m2
    Maximum Content Light Level : 571 cd/m2
    Maximum Frame-Average Light Level : 257 cd/m2
    Original source medium : Blu-ray

    Audio #1
    ID : 2
    ID in the original source medium : 4352 (0x1100)
    Format : MLP FBA 16-ch
    Format/Info : Meridian Lossless Packing FBA with 16-channel presentation
    Commercial name : Dolby TrueHD with Dolby Atmos
    Codec ID : A_TRUEHD
    Duration : 2 h 12 min
    Bit rate mode : Variable
    Bit rate : 3 455 kb/s
    Maximum bit rate : 5 478 kb/s
    Channel(s) : 8 channels
    Channel layout : L R C LFE Ls Rs Lb Rb
    Sampling rate : 48.0 kHz
    Frame rate : 1 200.000 FPS (40 SPF)
    Bit depth : 24 bits
    Compression mode : Lossless
    Stream size : 3.19 GiB (4%)
    Title : TrueHD 7.1 Atmos
    Language : English
    Default : Yes
    Forced : No
    Original source medium : Blu-ray
    Number of dynamic objects : 11
    Bed channel count : 1 channel
    Bed channel configuration : LFE

    Menu
    00:00:00.000 : en:Chapter 01
    00:14:25.614 : en:Chapter 02
    00:22:08.035 : en:Chapter 03
    00:31:31.973 : en:Chapter 04
    00:40:48.362 : en:Chapter 05
    00:50:19.933 : en:Chapter 06
    01:01:09.332 : en:Chapter 07
    01:10:05.868 : en:Chapter 08
    01:19:44.488 : en:Chapter 09
    01:29:00.793 : en:Chapter 10
    01:40:41.160 : en:Chapter 11
    01:50:37.130 : en:Chapter 12
    01:59:28.536 : en:Chapter 13




    mhd https://www.hdvietnam.com/threads/h...-bluray-dd5-1x264-xmd-diep-vu-cam-tu.1721968/

    720p https://www.hdvietnam.com/threads/h...-720p-bluray-x264-dts-diep-vu-cam-tu.1721966/

    1080p https://www.hdvietnam.com/threads/h...atmos-truehd-7-1-x264-diep-vu-cam-tu.1721873/

    4K-HDR https://www.hdvietnam.com/threads/4...-10bit-hdr-dts-hd-ma-truehd-7-1-atmo.1724448/

    Thuyết minh https://www.hdvietnam.com/threads/h...y-dd-ex-5-1-x264-wiki-diep-vu-cam-tu.1723957/

    Remux https://www.hdvietnam.com/threads/h...d-ma-truehd-7-1-atmos-diep-vu-cam-tu.1722009/

    Remux 4K https://www.hdvietnam.com/threads/r...-hevc-dts-hd-ma-truehd-7-1-atmos-fgt.1723235/

    ISO
     
    Chỉnh sửa cuối: 22/10/21
    lmdhd and saianhcuong like this.
  2. Đang tải...


  3. xemaydinh

    xemaydinh Tem

    Tham gia ngày:
    3/7/10
    Bài viết:
    32,679
    Đã được cảm ơn:
    145,725

Chia sẻ trang này