Robocop (2014) Webrip HC XVID AC3- ACAB

Thảo luận trong 'WEB-DL, HDTV' bắt đầu bởi Ravek, 31/3/14.

  1. Ravek

    Ravek New Member

    Tham gia ngày:
    11/2/13
    Bài viết:
    122
    Đã được cảm ơn:
    4
    [​IMG]


    Robocop (2014) Webrip HC XVID AC3- ACAB
    File Size: 798 MiB


    .:: MOVIE INFO ::.


    IMDB:
    Mã:
    http://www.imdb.com/title/tt1234721/
    Title: RoboCop
    Year: 2014
    Genre: Action, Crime, Sci-Fi, Thriller
    Rating: N/A (N/A votes)
    Runtime: N/A
    Director: José Padilha
    Cast: Joel Kinnaman, Douglas Urbanski, Abbie Cornish, Gary Oldman
    Plot:
    Mã:
    In 2028 Detroit, when Alex Murphy (Joel Kinnaman) - a loving husband, father and good cop - is critically injured in the line of duty, the multinational conglomerate OmniCorp sees their chance for a part-man, part-robot police officer.

    .:: RELEASE INFO ::.

    Mã:
    Format                                   : AVI
    Format/Info                              : Audio Video Interleave
    File size                                : 798 MiB
    Duration                                 : 1h 48mn
    Overall bit rate                         : 1 030 Kbps
    Video
    ID                                       : 0
    Format                                   : MPEG-4 Visual
    Format profile                           : Advanced [email protected]
    Format settings, BVOP                    : 2
    Format settings, QPel                    : No
    Format settings, GMC                     : No warppoints
    Format settings, Matrix                  : Default (H.263)
    Muxing mode                              : Packed bitstream
    Codec ID                                 : XVID
    Codec ID/Hint                            : XviD
    Duration                                 : 1h 48mn
    Bit rate                                 : 893 Kbps
    Width                                    : 640 pixels
    Height                                   : 272 pixels
    Display aspect ratio                     : 2.35:1
    Frame rate                               : 29.970 fps
    Color space                              : YUV
    Chroma subsampling                       : 4:2:0
    Bit depth                                : 8 bits
    Scan type                                : Progressive
    Compression mode                         : Lossy
    Bits/(Pixel*Frame)                       : 0.171
    Stream size                              : 692 MiB (87%)
    Writing library                          : XviD 1.2.1 (UTC 2008-12-04)
    Audio
    ID                                       : 1
    Format                                   : AC-3
    Format/Info                              : Audio Coding 3
    Mode extension                           : CM (complete main)
    Format settings, Endianness              : Big
    Codec ID                                 : 2000
    Duration                                 : 1h 48mn
    Bit rate mode                            : Constant
    Bit rate                                 : 128 Kbps
    Channel(s)                               : 2 channels
    Channel positions                        : Front: L R
    Sampling rate                            : 44.1 KHz
    Bit depth                                : 16 bits
    Compression mode                         : Lossy
    Stream size                              : 99.2 MiB (12%)
    .:: SCREENSHOTS ::.

    [​IMG]


    [​IMG]

    Mã:
    Download From Rapidgator.net! | Single file
    http://rapidgator.net/file/14adf4da0a991a266119d6491aff4cfb/Robocop.2014.WEBRip.XVID.AC3-ACAB.avi.html

    If you like my post, don't forget to say thanks!!! :)
     

Chia sẻ trang này