Robocop (2014) WEBRip XviD MP3- RARBG

Thảo luận trong 'WEB-DL, HDTV' bắt đầu bởi Ravek, 31/3/14.

  1. Ravek

    Ravek New Member

    Tham gia ngày:
    11/2/13
    Bài viết:
    122
    Đã được cảm ơn:
    4
    [​IMG]


    Robocop (2014) WEBRip XviD MP3- RARBG
    File Size: 884 MiB


    .:: MOVIE INFO ::.


    IMDB:
    Mã:
    http://www.imdb.com/title/tt1234721/
    Title: RoboCop
    Year: 2014
    Genre: Action, Crime, Sci-Fi, Thriller
    Rating: 6.7 (42,643 Votes)
    Runtime: 117 min
    Director: José Padilha
    Cast: Joel Kinnaman, Gary Oldman, Michael Keaton
    Plot:
    Mã:
    In 2028 Detroit, when Alex Murphy - a loving husband, father and good cop - is critically injured in the line of duty, the multinational conglomerate OmniCorp sees their chance for a part-man, part-robot police officer.
    .:: RELEASE INFO ::.

    Mã:
    Info:
    Format                                   : AVI
    Format/Info                              : Audio Video Interleave
    File size                                : 884 MiB
    Duration                                 : 1h 48mn
    Overall bit rate                         : 1 141 Kbps
    Video
    ID                                       : 0
    Format                                   : MPEG-4 Visual
    Format profile                           : [email protected]
    Format settings, BVOP                    : No
    Format settings, QPel                    : No
    Format settings, GMC                     : No warppoints
    Format settings, Matrix                  : Default (H.263)
    Codec ID                                 : XVID
    Codec ID/Hint                            : XviD
    Duration                                 : 1h 48mn
    Bit rate                                 : 1 000 Kbps
    Width                                    : 640 pixels
    Height                                   : 272 pixels
    Display aspect ratio                     : 2.35:1
    Frame rate                               : 29.970 fps
    Color space                              : YUV
    Chroma subsampling                       : 4:2:0
    Bit depth                                : 8 bits
    Scan type                                : Progressive
    Compression mode                         : Lossy
    Bits/(Pixel*Frame)                       : 0.192
    Stream size                              : 775 MiB (88%)
    Writing library                          : Lavc55.55.104
    Audio
    ID                                       : 1
    Format                                   : MPEG Audio
    Format version                           : Version 1
    Format profile                           : Layer 3
    Mode                                     : Joint stereo
    Mode extension                           : MS Stereo
    Codec ID                                 : 55
    Codec ID/Hint                            : MP3
    Duration                                 : 1h 48mn
    Bit rate mode                            : Constant
    Bit rate                                 : 128 Kbps
    Channel(s)                               : 2 channels
    Sampling rate                            : 44.1 KHz
    Compression mode                         : Lossy
    Stream size                              : 99.2 MiB (11%)
    Alignment                                : Aligned on interleaves
    Interleave, duration                     : 26 ms (0.78 video frame)
    .:: SCREENSHOTS ::.

    [​IMG]


    [​IMG]

    Mã:
    Download From Rapidgator.net! | Single file
    http://rapidgator.net/file/e40802e70eac026fbf7329b911c8166b/Robocop.2014.R6.HC.Subs.WEBRip.XviD.MP3-RARBG.avi.html

    If you like my post, don't forget to say thanks!!! :)
     

Chia sẻ trang này