[Sport] Chung kết FIFA World Cup 2002 - Brazil vs Đức 1080i HDTV

Thảo luận trong 'WEB-DL, HDTV' bắt đầu bởi Joshpham79, 20/8/20.

  1. Joshpham79

    Joshpham79 Well-Known Member

    Tham gia ngày:
    4/7/19
    Bài viết:
    352
    Đã được cảm ơn:
    2,184
    Giới tính:
    Nam
    Nghề nghiệp:
    Tự do
    Nơi ở:
    TP Vinh
    Dành cho những ai là fan của Brazil :D
    [​IMG]

    Complete name : FIFA World Cup 2002 - Final - Brazil vs Germany 30.06.2002 1080i.ts

    Format : MPEG-TS
    File size : 12.8 GiB
    Duration : 1 h 43 min
    Overall bit rate : 17.7 Mb/s

    Video
    Format : MPEG Video
    Format version : Version 2
    Format profile : [email protected]
    Format settings : BVOP
    Format settings, BVOP : Yes
    Duration : 1 h 43 min
    Bit rate mode : Variable
    Bit rate : 16.4 Mb/s
    Maximum bit rate : 17.1 Mb/s
    Width : 1 920 pixels
    Height : 1 088 pixels
    Display aspect ratio : 16:9
    Frame rate : 29.970 (30000/1001) FPS
    Standard : Component
    Color space : YUV
    Chroma subsampling : 4:2:0
    Bit depth : 8 bits
    Scan type : Interlaced
    Scan order : Top Field First
    Compression mode : Lossy
    Bits/(Pixel*Frame) : 0.262
    Stream size : 11.9 GiB (93%)
    Color primaries : BT.709
    Transfer characteristics : BT.709
    Matrix coefficients : BT.709

    Audio
    Format : AC-3
    Format/Info : Audio Coding 3
    Commercial name : Dolby Digital
    Codec ID : 129
    Duration : 1 h 43 min
    Bit rate mode : Constant
    Bit rate : 384 kb/s
    Channel(s) : 2 channels
    Channel layout : L R
    Sampling rate : 48.0 kHz
    Compression mode : Lossy
    Stream size : 284 MiB (2%)
    Service kind : Complete Main

    File nằm ngoài vùng an toàn, mọi người tải nhanh kẻo bị xóa
    Link tải:
    Nhấn nút Cảm ơn (dưới chân bài) để thấy link!
     
    Chỉnh sửa cuối: 30/11/20
  2. Joshpham79

    Joshpham79 Well-Known Member

    Tham gia ngày:
    4/7/19
    Bài viết:
    352
    Đã được cảm ơn:
    2,184
    Giới tính:
    Nam
    Nghề nghiệp:
    Tự do
    Nơi ở:
    TP Vinh
  3. Joshpham79

    Joshpham79 Well-Known Member

    Tham gia ngày:
    4/7/19
    Bài viết:
    352
    Đã được cảm ơn:
    2,184
    Giới tính:
    Nam
    Nghề nghiệp:
    Tự do
    Nơi ở:
    TP Vinh
  4. gialinh2017

    gialinh2017 New Member

    Tham gia ngày:
    17/8/20
    Bài viết:
    1
    Đã được cảm ơn:
    1
    hay qua.tks ban nhieu
     
    Joshpham79 cảm ơn bài này.
  5. Joshpham79

    Joshpham79 Well-Known Member

    Tham gia ngày:
    4/7/19
    Bài viết:
    352
    Đã được cảm ơn:
    2,184
    Giới tính:
    Nam
    Nghề nghiệp:
    Tự do
    Nơi ở:
    TP Vinh
  6. Joshpham79

    Joshpham79 Well-Known Member

    Tham gia ngày:
    4/7/19
    Bài viết:
    352
    Đã được cảm ơn:
    2,184
    Giới tính:
    Nam
    Nghề nghiệp:
    Tự do
    Nơi ở:
    TP Vinh
  7. Joshpham79

    Joshpham79 Well-Known Member

    Tham gia ngày:
    4/7/19
    Bài viết:
    352
    Đã được cảm ơn:
    2,184
    Giới tính:
    Nam
    Nghề nghiệp:
    Tự do
    Nơi ở:
    TP Vinh
  8. Joshpham79

    Joshpham79 Well-Known Member

    Tham gia ngày:
    4/7/19
    Bài viết:
    352
    Đã được cảm ơn:
    2,184
    Giới tính:
    Nam
    Nghề nghiệp:
    Tự do
    Nơi ở:
    TP Vinh
    Có bác nào còn giữ file không nhỉ, cái cloud cũ bay mất nên giờ mất file o_O
     

Chia sẻ trang này