[Fshare] [Tâm Lí | 1link ] Hachiko A Dog's Story 2009 BluRay 720p DTS x264-EbP & VAV

Thảo luận trong 'Phim có audio Việt' bắt đầu bởi xemaydinh, 26/10/13.

  1. xemaydinh

    xemaydinh Tem

    Tham gia ngày:
    3/7/10
    Bài viết:
    32,865
    Đã được cảm ơn:
    147,078
    Hachiko A Dog's Story 2009 BluRay 720p DTS x264-EbP & VAV


    [​IMG]

    [​IMG]





    Mã:
    General
    Unique ID                                : 197036166559153619466759803306972027799 (0x943BC90B68FD14059754172E55241B97)
    Format                                   : Matroska
    Format version                           : Version 2
    File size                                : 5.35 GiB
    Duration                                 : 1h 33mn
    Overall bit rate                         : 8 216 Kbps
    Movie name                               : Hachiko.A.Dog's.Story.2009.ViE.720p.BluRay.2Audio.DTS.x264-EbP&VAV
    Encoded date                             : UTC 2012-08-29 06:31:58
    Writing application                      : mkvmerge v5.7.0 ('The Whirlwind') built on Jul  8 2012 20:08:51
    Writing library                          : libebml v1.2.3 + libmatroska v1.3.0
    
    Video
    ID                                       : 1
    Format                                   : AVC
    Format/Info                              : Advanced Video Codec
    Format profile                           : [email protected]
    Format settings, CABAC                   : Yes
    Format settings, ReFrames                : 6 frames
    Muxing mode                              : Header stripping
    Codec ID                                 : V_MPEG4/ISO/AVC
    Duration                                 : 1h 33mn
    Bit rate                                 : 5 204 Kbps
    Width                                    : 1 280 pixels
    Height                                   : 690 pixels
    Display aspect ratio                     : 1.85:1
    Frame rate mode                          : Constant
    Frame rate                               : 23.976 fps
    Color space                              : YUV
    Chroma subsampling                       : 4:2:0
    Bit depth                                : 8 bits
    Scan type                                : Progressive
    Bits/(Pixel*Frame)                       : 0.246
    Stream size                              : 3.28 GiB (61%)
    Title                                    : Hachiko: A Dog's Story (2009) | VAV | tranvinhhn
    Writing library                          : x264 core 88 r1471 1144615
    Encoding settings                        : cabac=1 / ref=6 / deblock=1:-3:-3 / analyse=0x3:0x113 / me=umh / subme=9 / psy=1 / psy_rd=0.80:0.00 / mixed_ref=1 / me_range=24 / chroma_me=1 / trellis=2 / 8x8dct=1 / cqm=0 / deadzone=21,11 / fast_pskip=0 / chroma_qp_offset=-2 / threads=12 / sliced_threads=0 / nr=0 / decimate=1 / mbaff=0 / constrained_intra=0 / bframes=5 / b_pyramid=2 / b_adapt=2 / b_bias=0 / direct=3 / wpredb=1 / wpredp=2 / keyint=250 / keyint_min=25 / scenecut=40 / intra_refresh=0 / rc=2pass / mbtree=0 / bitrate=5204 / ratetol=1.0 / qcomp=0.60 / qpmin=10 / qpmax=51 / qpstep=4 / cplxblur=20.0 / qblur=0.5 / ip_ratio=1.40 / pb_ratio=1.30 / aq=1:0.70
    Language                                 : English
    Default                                  : Yes
    Forced                                   : No
    
    Audio #1
    ID                                       : 2
    Format                                   : DTS
    Format/Info                              : Digital Theater Systems
    Mode                                     : 16
    Format settings, Endianness              : Big
    Muxing mode                              : Header stripping
    Codec ID                                 : A_DTS
    Duration                                 : 1h 33mn
    Bit rate mode                            : Constant
    Bit rate                                 : 1 510 Kbps
    Channel count                            : 6 channels
    Channel positions                        : Front: L C R, Side: L R, LFE
    Sampling rate                            : 48.0 KHz
    Bit depth                                : 24 bits
    Compression mode                         : Lossy
    Stream size                              : 1 007 MiB (18%)
    Title                                    : Vietnamese DTS 5.1 @ 1510 Kbps
    Language                                 : Vietnamese
    Default                                  : Yes
    Forced                                   : No
    
    Audio #2
    ID                                       : 5
    Format                                   : DTS
    Format/Info                              : Digital Theater Systems
    Mode                                     : 16
    Format settings, Endianness              : Big
    Muxing mode                              : Header stripping
    Codec ID                                 : A_DTS
    Duration                                 : 1h 33mn
    Bit rate mode                            : Constant
    Bit rate                                 : 1 509 Kbps
    Channel count                            : 6 channels
    Channel positions                        : Front: L C R, Side: L R, LFE
    Sampling rate                            : 48.0 KHz
    Bit depth                                : 24 bits
    Compression mode                         : Lossy
    Stream size                              : 1 006 MiB (18%)
    Title                                    : English DTS 5.1 @ 1510 Kbps
    Language                                 : English
    Default                                  : No
    Forced                                   : No
    
    Text #1
    ID                                       : 3
    Format                                   : UTF-8
    Codec ID                                 : S_TEXT/UTF8
    Codec ID/Info                            : UTF-8 Plain Text
    Title                                    : VAV tranvinhhn info
    Language                                 : French
    Default                                  : Yes
    Forced                                   : No
    
    Text #2
    ID                                       : 4
    Format                                   : UTF-8
    Codec ID                                 : S_TEXT/UTF8
    Codec ID/Info                            : UTF-8 Plain Text
    Title                                    : English
    Language                                 : English
    Default                                  : No
    Forced                                   : No
    
    Text #3
    ID                                       : 6
    Format                                   : UTF-8
    Codec ID                                 : S_TEXT/UTF8
    Codec ID/Info                            : UTF-8 Plain Text
    Title                                    : Vietnamese
    Language                                 : Vietnamese
    Default                                  : No
    Forced                                   : No
    
    Menu
    00:00:00.000                             : :00:00:00.000
    00:06:15.208                             : :00:06:15.208
    00:11:54.047                             : :00:11:54.047
    00:18:37.408                             : :00:18:37.408
    00:23:39.043                             : :00:23:39.043
    00:28:31.293                             : :00:28:31.293
    00:31:39.564                             : :00:31:39.564
    00:35:33.089                             : :00:35:33.089
    00:40:38.519                             : :00:40:38.519
    00:47:16.709                             : :00:47:16.709
    00:54:15.794                             : :00:54:15.794
    00:58:41.518                             : :00:58:41.518
    01:06:06.754                             : :01:06:06.754
    01:12:45.778                             : :01:12:45.778
    01:18:41.717                             : :01:18:41.717
    01:23:22.706                             : :01:23:22.706
    
    


    [​IMG]




    Link tải phim
    Hachiko A Dog's Story 2009 BluRay 720p DTS x264-EbP & VAV
    LINK FSHARE
    Nhấn nút Cảm ơn (dưới chân bài) để thấy link!

    OTHER LINK

    LINK TORRENTS

    Phim đã được Mux đầy đủ Audio Eng + Việt | Sub: Eng + Việt trong file MKV


    [ VAV STUDIO ] TỔNG HỢP PHIM HD THUYẾT MINH TIẾNG VIỆT



    [​IMG] [​IMG] [​IMG]



     
  2. Đang tải...


  3. kengha

    kengha Member

    Tham gia ngày:
    23/12/09
    Bài viết:
    257
    Đã được cảm ơn:
    12
    Ðề: [Tâm Lí | 1link ] Hachiko A Dog's Story 2009 BluRay 720p DTS x264-EbP & VAV

    mình khai truơng nhé
    thanks bác chủ nhiều
     
  4. S379

    S379 Uploader

    Tham gia ngày:
    1/9/13
    Bài viết:
    2,067
    Đã được cảm ơn:
    54,045
    Ðề: [Tâm Lí | 1link ] Hachiko A Dog's Story 2009 BluRay 720p DTS x264-EbP & VAV

    Thêm hàng loại film có thuyết mình của VAV ra tiếp :D. Thanks bạn nhiều.
     
    trungnt90 cảm ơn bài này.

Chia sẻ trang này