[Fshare] [Tâm Lí | 1link ] Hsue-shen Tsien 2012 720p HDTV x264-NGB & VAV- Trần Khôn

Thảo luận trong 'Phim có audio Việt' bắt đầu bởi xemaydinh, 2/11/13.

  1. xemaydinh

    xemaydinh Tem

    Tham gia ngày:
    3/7/10
    Bài viết:
    32,704
    Đã được cảm ơn:
    145,953
    Hsue-shen Tsien 2012 720p HDTV x264-NGB & VAV


    [​IMG]

    [​IMG]





    Mã:
    General
    Unique ID                                : 246474810288079113944652680440795869681 (0xB96D525F541891ABA1BDE723D5DBB1F1)
    Format                                   : Matroska
    Format version                           : Version 2
    File size                                : 5.12 GiB
    Duration                                 : 1h 38mn
    Overall bit rate                         : 7 429 Kbps
    Movie name                               : Hsue-Shen.Tsien.2012.ViE.720p.HDTV.2Audio.AC3.x264-NGB&VAV
    Encoded date                             : UTC 2012-08-19 04:00:23
    Writing application                      : mkvmerge v5.7.0 ('The Whirlwind') built on Jul  8 2012 20:08:51
    Writing library                          : libebml v1.2.3 + libmatroska v1.3.0
    
    Video
    ID                                       : 1
    Format                                   : AVC
    Format/Info                              : Advanced Video Codec
    Format profile                           : [email protected]
    Format settings, CABAC                   : Yes
    Format settings, ReFrames                : 8 frames
    Muxing mode                              : Header stripping
    Codec ID                                 : V_MPEG4/ISO/AVC
    Duration                                 : 1h 38mn
    Bit rate                                 : 6 149 Kbps
    Width                                    : 1 280 pixels
    Height                                   : 544 pixels
    Display aspect ratio                     : 2.35:1
    Frame rate mode                          : Constant
    Frame rate                               : 24.000 fps
    Color space                              : YUV
    Chroma subsampling                       : 4:2:0
    Bit depth                                : 8 bits
    Scan type                                : Progressive
    Bits/(Pixel*Frame)                       : 0.368
    Stream size                              : 4.13 GiB (81%)
    Title                                    : Hsue-Shen Tsien (2012) | VAV | tranvinhhn
    Writing library                          : x264 core 116 r2074 2641b9e
    Encoding settings                        : cabac=1 / ref=8 / deblock=1:-3:-3 / analyse=0x3:0x113 / me=umh / subme=9 / psy=1 / psy_rd=1.10:0.00 / mixed_ref=1 / me_range=32 / chroma_me=1 / trellis=2 / 8x8dct=1 / cqm=0 / deadzone=21,11 / fast_pskip=0 / chroma_qp_offset=-4 / threads=6 / sliced_threads=0 / nr=0 / decimate=0 / interlaced=0 / bluray_compat=0 / constrained_intra=0 / bframes=8 / b_pyramid=2 / b_adapt=2 / b_bias=0 / direct=3 / weightb=1 / open_gop=0 / weightp=2 / keyint=250 / keyint_min=24 / scenecut=40 / intra_refresh=0 / rc_lookahead=48 / rc=2pass / mbtree=1 / bitrate=6149 / ratetol=1.0 / qcomp=0.60 / qpmin=0 / qpmax=69 / qpstep=4 / cplxblur=20.0 / qblur=0.5 / ip_ratio=1.40 / aq=1:0.80
    Language                                 : English
    Default                                  : Yes
    Forced                                   : No
    
    Audio #1
    ID                                       : 2
    Format                                   : AC-3
    Format/Info                              : Audio Coding 3
    Mode extension                           : CM (complete main)
    Format settings, Endianness              : Big
    Muxing mode                              : Header stripping
    Codec ID                                 : A_AC3
    Duration                                 : 1h 38mn
    Bit rate mode                            : Constant
    Bit rate                                 : 640 Kbps
    Channel count                            : 2 channels
    Channel positions                        : Front: L R
    Sampling rate                            : 48.0 KHz
    Bit depth                                : 16 bits
    Compression mode                         : Lossy
    Stream size                              : 451 MiB (9%)
    Title                                    : Vietnamese AC3 2.0 @ 640 Kbps
    Language                                 : Vietnamese
    Default                                  : Yes
    Forced                                   : No
    
    Audio #2
    ID                                       : 4
    Format                                   : AC-3
    Format/Info                              : Audio Coding 3
    Mode extension                           : CM (complete main)
    Format settings, Endianness              : Big
    Muxing mode                              : Header stripping
    Codec ID                                 : A_AC3
    Duration                                 : 1h 38mn
    Bit rate mode                            : Constant
    Bit rate                                 : 640 Kbps
    Channel count                            : 2 channels
    Channel positions                        : Front: L R
    Sampling rate                            : 48.0 KHz
    Bit depth                                : 16 bits
    Compression mode                         : Lossy
    Stream size                              : 451 MiB (9%)
    Title                                    : Chinese AC3 2.0 @ 640 Kbps
    Language                                 : Chinese
    Default                                  : No
    Forced                                   : No
    
    Text
    ID                                       : 3
    Format                                   : UTF-8
    Codec ID                                 : S_TEXT/UTF8
    Codec ID/Info                            : UTF-8 Plain Text
    Title                                    : VAV tranvinhhn info
    Language                                 : English
    Default                                  : Yes
    Forced                                   : No
    
    


    [​IMG]


    [​IMG] [​IMG]
    [​IMG] [​IMG]
    [​IMG] [​IMG]
    [​IMG] [​IMG]
    [​IMG] [​IMG]
    [​IMG] [​IMG]
    [​IMG] [​IMG]
    [​IMG] [​IMG]
    [​IMG] [​IMG]
    [​IMG] [​IMG]
    [​IMG] [​IMG]
    [​IMG] [​IMG]

    Link tải phim
    Hsue-shen Tsien 2012 720p HDTV x264-NGB & VAV
    LINK FSHARE
    Nhấn nút Cảm ơn (dưới chân bài) để thấy link!

    OTHER LINK

    LINK TORRENTS

    Phim đã được Mux đầy đủ Audio Eng + Việt | Sub: Eng + Việt trong file MKV


    [ VAV STUDIO ] TỔNG HỢP PHIM HD THUYẾT MINH TIẾNG VIỆT



    [​IMG] [​IMG] [​IMG]



     
    tranminhcong, fsvnhd, hdfsvn and 2 others like this.
  2. Đang tải...


Chia sẻ trang này