[Tâm Lý ] A Chinese Torture Chamber Story duology DVD DD2.0 x264 - Mãn Thanh thập đại khốc hình

Thảo luận trong 'mHD, SD' bắt đầu bởi xemaydinh, 8/9/21.

  1. xemaydinh

    xemaydinh Tem

    Tham gia ngày:
    3/7/10
    Bài viết:
    31,582
    Đã được cảm ơn:
    141,813
    A Chinese Torture Chamber Story duology DVD DD2.0 x264
    Mãn Thanh thập đại khốc hình | 18+

    [​IMG]




    A Chinese Torture Chamber Story 1994 - Mãn Thanh thập đại khốc hình


    Thời Mãn Thanh, bọn vua quan không có việc làm nên rảnh rỗi sinh nông nổi, sáng chế ra thập đại khốc hình. Mười hình phạt đó được xem là dã man nhất trong lịch sử nhân loại và nó chỉ được sản sinh ở Trung Hoa, nước láng giềng của ta. Mười trò giết chóc gồm Đàn Hương Hình, đóng cọc vào hậu môn thông đến miệng rồi để ngắc ngoải vài ngày mới chết được, thường dành cho nữ (có lẽ lỗ sau của phụ nữ rộng hơn ? Các bạn tìm đọc truyện này của Mạc Ngôn sẽ hiểu thêm) rồi nào là lăng trì, tùng xẻo, ôm cột đồng, chôn sống bổ sọ, Cực hình ngựa gỗ,… trong đó Đàn Hương Hình làm v0minh tôi rùng mình ớn lạnh nhất về độ dã man và tàn bạo mà loài người từng nghĩ ra… Phim nói về một nàng cô gái về làm vợ lẽ người ta và bị gán ghép tội ngoại tình rồi được thưởng thức Mãn Thanh thập đại khốc hình…

    A Chinese Torture Chamber Story 2 1998 - Mãn Thanh thập đại khốc hình 2

    Câu chuyện bắt đầu với một chàng tên Mã kết nghĩa huynh đệ với hai tay cướp đường. Bọn họ có thêm một cô gái tên Liên, là vợ đính hôn của một trong hai tên cướp đồng thời là em gái của tên còn lại. Sau thời gian huynh đệ có nhau, hai người kia cũng hoàn lương, làm nghề lương thiện kiếm sống. Mã có tình ý với Liên và vượt quá giới hạn. Ngày chia tay, Mã thề sẽ bảo vệ mọi người bằng mạng sống của Mã. Bẵng đi vài năm, nhóm cướp hoàn lương có việc lên kinh thành thì gặp lại Mã, lúc này đã là một vị quan to, quyền sinh sát bao trùm một cõi. Người ta nói, một người làm quan, cả họ được nhờ, thực không sai chút nào. Nhưng nhờ được đó cũng nguy hại ngay đó. Bản thân Mã muốn che dấu thân phận của mình, nhất là mối tình vụng trộm với Liên… (


    Complete name :A Chinese Torture Chamber Story (1994) NTSC DVD9.Remux.mkv
    Format : Matroska
    Format version : Version 2
    File size : 4.26 GiB
    Duration : 1 h 33 min
    Overall bit rate mode : Variable
    Overall bit rate : 6 556 kb/s
    Encoded date : UTC 2014-08-22 13:19:19
    Writing application : MakeMKV v1.8.12 win(x86-release)
    Writing library : libmakemkv v1.8.12 (1.3.0/1.4.1) win(x86-release)

    Video
    ID : 1
    Format : MPEG Video
    Format version : Version 2
    Format profile : [email protected]
    Format settings, BVOP : Yes
    Format settings, Matrix : Custom
    Format settings, GOP : M=3, N=15
    Codec ID : V_MPEG2
    Codec ID/Info : MPEG 1 or 2 Video
    Duration : 1 h 33 min
    Bit rate mode : Variable
    Bit rate : 6 042 kb/s
    Maximum bit rate : 7 700 kb/s
    Width : 720 pixels
    Height : 480 pixels
    Display aspect ratio : 16:9
    Frame rate mode : Constant
    Frame rate : 29.970 (30000/1001) FPS
    Standard : NTSC
    Color space : YUV
    Chroma subsampling : 4:2:0
    Bit depth : 8 bits
    Scan type : Progressive
    Compression mode : Lossy
    Bits/(Pixel*Frame) : 0.583
    Time code of first frame : 00:00:00;00
    Time code source : Group of pictures header
    GOP, Open/Closed : Closed
    Stream size : 3.92 GiB (92%)
    Language : English
    Default : No
    Forced : No
    Color primaries : BT.601 NTSC
    Transfer characteristics : BT.601
    Matrix coefficients : BT.601

    Audio #1
    ID : 2
    Format : AC-3
    Format/Info : Audio Coding 3
    Mode extension : CM (complete main)
    Format settings, Endianness : Big
    Codec ID : A_AC3
    Duration : 1 h 33 min
    Bit rate mode : Constant
    Bit rate : 192 kb/s
    Channel(s) : 2 channels
    Channel positions : Front: L R
    Sampling rate : 48.0 kHz
    Frame rate : 31.250 FPS (1536 spf)
    Compression mode : Lossy
    Stream size : 128 MiB (3%)
    Title : Stereo
    Language : German
    Default : Yes
    Forced : No

    Audio #2
    ID : 3
    Format : AC-3
    Format/Info : Audio Coding 3
    Mode extension : CM (complete main)
    Format settings, Endianness : Big
    Codec ID : A_AC3
    Duration : 1 h 33 min
    Bit rate mode : Constant
    Bit rate : 192 kb/s
    Channel(s) : 2 channels
    Channel positions : Front: L R
    Sampling rate : 48.0 kHz
    Frame rate : 31.250 FPS (1536 spf)
    Compression mode : Lossy
    Stream size : 128 MiB (3%)
    Title : Stereo
    Language : Chinese
    Default : No
    Forced : No

    Text
    ID : 4
    Format : VobSub
    Codec ID : S_VOBSUB
    Codec ID/Info : Picture based subtitle format used on DVDs
    Language : German
    Default : Yes
    Forced : No







    mhd

    720p

    1080p

    Thuyết minh

    Remux

    ISO
     
    Chỉnh sửa cuối: 8/9/21
  2. Đang tải...


  3. kuthanh115

    kuthanh115 New Member

    Tham gia ngày:
    22/12/10
    Bài viết:
    4
    Đã được cảm ơn:
    2
    link folder fshare ko phải của phim ad ơi !!!
     
    xemaydinh cảm ơn bài này.
  4. xemaydinh

    xemaydinh Tem

    Tham gia ngày:
    3/7/10
    Bài viết:
    31,582
    Đã được cảm ơn:
    141,813

    đã fix link,mình nhầm,sr
     
    kuthanh115 cảm ơn bài này.

Chia sẻ trang này