[Tâm lý] October.2018.Hindi.1080p.BluRay.x264.DTS-HDMA.5.1.Vietsub ~ Hoa Lý Dạ Hương

Thảo luận trong 'Fshare.vn' bắt đầu bởi hatieupro7, 4/1/19.

  1. hatieupro7

    hatieupro7 Well-Known Member

    Tham gia ngày:
    26/9/10
    Bài viết:
    361
    Đã được cảm ơn:
    2,900
    Giới tính:
    Nam
    Nghề nghiệp:
    OSIN
    Nơi ở:
    Haiphong city
    OCTOBER (2018)
    HOA LÝ DẠ HƯƠNG THÁNG 10
    IMDB: https://www.imdb.com/title/tt7700730/


    [​IMG]

    TRAILER


    SCREENSHOTS
    [​IMG]

    PLOT:​

    Mã:
    Complete name               : H:\October.2018.Hindi.1080p.BluRay.x264.DTS-HDMA.5.1.-.Hon3yHD\October.2018.Hindi.1080p.BluRay.x264.DTS-HDMA.5.1.-.Hon3yHD.mkv
    Format                      : Matroska
    Format version              : Version 4 / Version 2
    File size                   : 12.0 GiB
    Duration                    : 1 h 55 min
    Overall bit rate            : 14.9 Mb/s
    Encoded date                : UTC 2018-09-07 18:58:04
    Writing application         : mkvmerge v25.0.0 ('Prog Noir') 64-bit
    Writing library             : libebml v1.3.6 + libmatroska v1.4.9
    Video
    ID                          : 1
    Format                      : AVC
    Format/Info                 : Advanced Video Codec
    Format profile              : [email protected]
    Format settings, CABAC      : Yes
    Format settings, ReFrames   : 5 frames
    Codec ID                    : V_MPEG4/ISO/AVC
    Duration                    : 1 h 55 min
    Bit rate                    : 12.4 Mb/s
    Width                       : 1 920 pixels
    Height                      : 800 pixels
    Display aspect ratio        : 2.40:1
    Frame rate mode             : Constant
    Frame rate                  : 24.000 FPS
    Color space                 : YUV
    Chroma subsampling          : 4:2:0
    Bit depth                   : 8 bits
    Scan type                   : Progressive
    Bits/(Pixel*Frame)          : 0.337
    Stream size                 : 10.0 GiB (83%)
    Writing library             : x264 core 155 r2901 7d0ff22
    Encoding settings           : cabac=1 / ref=5 / deblock=1:-1:-1 / analyse=0x3:0x133 / me=umh / subme=9 / psy=1 / psy_rd=1.00:0.15 / mixed_ref=1 / me_range=16 / chroma_me=1 / trellis=2 / 8x8dct=1 / cqm=0 / deadzone=21,11 / fast_pskip=0 / chroma_qp_offset=-3 / threads=12 / lookahead_threads=1 / sliced_threads=0 / nr=0 / decimate=1 / interlaced=0 / bluray_compat=0 / constrained_intra=0 / bframes=3 / b_pyramid=2 / b_adapt=2 / b_bias=0 / direct=3 / weightb=1 / open_gop=0 / weightp=2 / keyint=250 / keyint_min=24 / scenecut=40 / intra_refresh=0 / rc_lookahead=60 / rc=2pass / mbtree=1 / bitrate=12407 / ratetol=1.0 / qcomp=0.60 / qpmin=0 / qpmax=69 / qpstep=4 / cplxblur=20.0 / qblur=0.5 / ip_ratio=1.40 / aq=1:1.00
    Language                    : English
    Default                     : Yes
    Forced                      : No
    Audio
    ID                          : 2
    Format                      : DTS
    Format/Info                 : Digital Theater Systems
    Format profile              : MA / Core
    Mode                        : 16
    Format settings, Endianness : Big
    Codec ID                    : A_DTS
    Duration                    : 1 h 55 min
    Bit rate mode               : Variable / Constant
    Bit rate                    : 2 447 kb/s / 1 509 kb/s
    Channel(s)                  : 6 channels
    Channel positions           : Front: L C R, Side: L R, LFE
    Sampling rate               : 48.0 kHz
    Frame rate                  : 93.750 FPS (512 spf)
    Bit depth                   : 16 bits
    Compression mode            : Lossless / Lossy
    Stream size                 : 1.98 GiB (16%)
    Default                     : Yes
    Forced                      : No
    Text
    ID                          : 3
    Format                      : PGS
    Muxing mode                 : zlib
    Codec ID                    : S_HDMV/PGS
    Codec ID/Info               : Picture based subtitle format used on BDs/HD-DVDs
    Duration                    : 1 h 46 min
    Bit rate                    : 23.9 kb/s
    Count of elements           : 2065
    Stream size                 : 18.2 MiB (0%)
    Language                    : English
    Default                     : Yes
    Forced                      : No


    (Link phụ đề dành cho bạn nào không thích hardsub: https://subscene.com/subtitles/october/vietnamese/1907976 )
    Chúc các bạn xem phim vui vẻ!
    #BMV.Team
    #Bollyw00ds
    #hatieupro

    Link thư mục phim Ấn do BMV.Team Việt hoá phụ đề
     
    Chỉnh sửa cuối: 21/6/19
  2. Đang tải...


  3. dungtam25

    dungtam25 Well-Known Member

    Tham gia ngày:
    6/9/10
    Bài viết:
    3,046
    Đã được cảm ơn:
    907
    Giới tính:
    Nam
    Thông tin thì 12 GB mà sao link chỉ có ngoài 3GB vậy bác
     
    huynhtiensinh and chibaohtv like this.
  4. hatieupro7

    hatieupro7 Well-Known Member

    Tham gia ngày:
    26/9/10
    Bài viết:
    361
    Đã được cảm ơn:
    2,900
    Giới tính:
    Nam
    Nghề nghiệp:
    OSIN
    Nơi ở:
    Haiphong city
    Khoảng 30' sau bác vào thư mục phim Ấn cuối bài bác nhé. Mạng chập chờn up từ chiều nó ko lên...
     
  5. hatieupro7

    hatieupro7 Well-Known Member

    Tham gia ngày:
    26/9/10
    Bài viết:
    361
    Đã được cảm ơn:
    2,900
    Giới tính:
    Nam
    Nghề nghiệp:
    OSIN
    Nơi ở:
    Haiphong city
    tajtuyen, tuananh0384 and aromat like this.
  6. hatieupro7

    hatieupro7 Well-Known Member

    Tham gia ngày:
    26/9/10
    Bài viết:
    361
    Đã được cảm ơn:
    2,900
    Giới tính:
    Nam
    Nghề nghiệp:
    OSIN
    Nơi ở:
    Haiphong city
    Reup 3 bản phim cho các bác, file phụ đề em đã up cùng thư mục
    OCTOBER (2018) 1080p WEB-DL x264 AC3 2.0 ESUB ~ Ranvijay (3Gb)
    October.2018.Hindi.1080p.BluRay.x264.DTS-HDMA.5.1.-.Hon3yHD (12Gb)
    October.2018.Hindi.1080p.BluRay.x264.DTS-HDMA.5.1.Vietsub-BMV.Team (3Gb - hardsub Việt)
     
  7. caplin

    caplin New Member

    Tham gia ngày:
    6/2/12
    Bài viết:
    7
    Đã được cảm ơn:
    0
    bạn có nhiều phim ấn, vậy có bản Evaru (2019) làm lại từ The invisible guest nổi tiếng của Tây Ban Nha không? Mình tìm mãi không có.
     
  8. hatieupro7

    hatieupro7 Well-Known Member

    Tham gia ngày:
    26/9/10
    Bài viết:
    361
    Đã được cảm ơn:
    2,900
    Giới tính:
    Nam
    Nghề nghiệp:
    OSIN
    Nơi ở:
    Haiphong city
    Phim này tiếng Telugu nên ít seed lắm, chả biết có kéo nổi không nữa...
    Evaru 2019 1080p WEB-DL DD+5.1 H.264-KamiKaze
     
    caplin cảm ơn bài này.
  9. nguyenvantien123

    nguyenvantien123 Well-Known Member

    Tham gia ngày:
    24/8/14
    Bài viết:
    608
    Đã được cảm ơn:
    492
    Có remux không bác
     
  10. cuongnho

    cuongnho Well-Known Member

    Tham gia ngày:
    26/5/14
    Bài viết:
    1,229
    Đã được cảm ơn:
    765
    Bác có phim Padmaavat này bản 1080p TrueHD 7.1 kg ? Nếu có cho mình xin...thank!
     
    tajtuyen cảm ơn bài này.
  11. hatieupro7

    hatieupro7 Well-Known Member

    Tham gia ngày:
    26/9/10
    Bài viết:
    361
    Đã được cảm ơn:
    2,900
    Giới tính:
    Nam
    Nghề nghiệp:
    OSIN
    Nơi ở:
    Haiphong city
    cuongnho cảm ơn bài này.
  12. cuongnho

    cuongnho Well-Known Member

    Tham gia ngày:
    26/5/14
    Bài viết:
    1,229
    Đã được cảm ơn:
    765

Chia sẻ trang này