[Tâm Lý ] Play Motel 1979 BluRay 1080p DTS-HD MA 2.0 AVC REMUX-FraMeSToR- Nhà Nghỉ Tình Dục

Thảo luận trong 'Bluray Remux' bắt đầu bởi xemaydinh, 6/10/21.

  1. xemaydinh

    xemaydinh Tem

    Tham gia ngày:
    3/7/10
    Bài viết:
    32,726
    Đã được cảm ơn:
    146,070
    Play Motel 1979 BluRay 1080p DTS-HD MA 2.0 AVC REMUX-FraMeSToR

    Nhà Nghỉ Tình Dục |18+

    [​IMG]



    Nhà nghỉ có một phòng đặc biệt được thiết kế cho các hoạt động tình dục.Một phóng viên và bạn gái của anh ta điều tra những cái chết xung quanh một khách sạn, nơi một số người nổi tiếng đến quan hệ tình dục.

    General

    Unique ID : 76734625381375290751113521873740089059 (0x39BA8D20A4711E2C33CE45C78D1FC6E3)
    Complete name : Play Motel 1979 BluRay 1080p DTS-HD MA 2.0 AVC REMUX-FraMeSToR.mkv
    Format : Matroska
    Format version : Version 4
    File size : 19.7 GiB
    Duration : 1 h 33 min
    Overall bit rate mode : Variable
    Overall bit rate : 30.3 Mb/s
    Movie name : Play Motel (1979)
    Encoded date : UTC 2018-08-08 14:26:49
    Writing application : mkvmerge v25.0.0 ('Prog Noir') 64-bit
    Writing library : libebml v1.3.6 + libmatroska v1.4.9

    Video
    ID : 1
    Format : AVC
    Format/Info : Advanced Video Codec
    Format profile : [email protected]
    Format settings : CABAC / 4 Ref Frames
    Format settings, CABAC : Yes
    Format settings, Reference frames : 4 frames
    Format settings, GOP : M=3, N=24
    Codec ID : V_MPEG4/ISO/AVC
    Duration : 1 h 33 min
    Bit rate mode : Variable
    Bit rate : 27.0 Mb/s
    Maximum bit rate : 38.0 Mb/s
    Width : 1 920 pixels
    Height : 1 080 pixels
    Display aspect ratio : 16:9
    Frame rate mode : Constant
    Frame rate : 23.976 (24000/1001) FPS
    Standard : NTSC
    Color space : YUV
    Chroma subsampling : 4:2:0
    Bit depth : 8 bits
    Scan type : Progressive
    Bits/(Pixel*Frame) : 0.543
    Stream size : 17.6 GiB (89%)
    Default : Yes
    Forced : No
    Color range : Limited
    Color primaries : BT.709
    Transfer characteristics : BT.709
    Matrix coefficients : BT.709

    Audio #1
    ID : 2
    Format : DTS XLL
    Format/Info : Digital Theater Systems
    Commercial name : DTS-HD Master Audio
    Codec ID : A_DTS
    Duration : 1 h 33 min
    Bit rate mode : Variable
    Bit rate : 1 588 kb/s
    Channel(s) : 2 channels
    Channel layout : L R
    Sampling rate : 48.0 kHz
    Frame rate : 93.750 FPS (512 SPF)
    Bit depth : 16 bits
    Compression mode : Lossless
    Stream size : 1.03 GiB (5%)
    Title : DTS-HD MA 2.0
    Language : Italian
    Default : Yes
    Forced : No

    Audio #2
    ID : 3
    Format : DTS XLL
    Format/Info : Digital Theater Systems
    Commercial name : DTS-HD Master Audio
    Codec ID : A_DTS
    Duration : 1 h 33 min
    Bit rate mode : Variable
    Bit rate : 1 662 kb/s
    Channel(s) : 2 channels
    Channel layout : L R
    Sampling rate : 48.0 kHz
    Frame rate : 93.750 FPS (512 SPF)
    Bit depth : 16 bits
    Compression mode : Lossless
    Stream size : 1.08 GiB (5%)
    Title : DTS-HD MA 2.0
    Language : English
    Default : No
    Forced : No

    Text #1
    ID : 4
    Format : PGS
    Codec ID : S_HDMV/PGS
    Codec ID/Info : Picture based subtitle format used on BDs/HD-DVDs
    Duration : 1 h 31 min
    Bit rate : 16.1 kb/s
    Count of elements : 1408
    Stream size : 10.5 MiB (0%)
    Title : English
    Language : English
    Default : Yes
    Forced : No

    Text #2
    ID : 5
    Format : PGS
    Codec ID : S_HDMV/PGS
    Codec ID/Info : Picture based subtitle format used on BDs/HD-DVDs
    Duration : 1 h 5 min
    Bit rate : 550 b/s
    Count of elements : 34
    Stream size : 265 KiB (0%)
    Title : English (Forced)
    Language : English
    Default : No
    Forced : No



    mhd

    720p

    1080p https://www.hdvietnam.com/threads/t...2-0-x264-watchable-nha-nghi-tinh-duc.1718356/

    Thuyết minh

    Remux https://www.hdvietnam.com/threads/t...vc-remux-framestor-nha-nghi-tinh-duc.1718397/

    ISO
     
    Chỉnh sửa cuối: 4/1/22
    alexdaide and Emcuamuaxuan like this.
  2. Đang tải...


  3. ananvinh

    ananvinh Well-Known Member

    Tham gia ngày:
    27/11/09
    Bài viết:
    476
    Đã được cảm ơn:
    290
  4. xemaydinh

    xemaydinh Tem

    Tham gia ngày:
    3/7/10
    Bài viết:
    32,726
    Đã được cảm ơn:
    146,070
    fix link die
     

Chia sẻ trang này