[Tâm lý] Sanju 2018 1080p NF WEB-DL H264 DDP 5.1 ~ Cuộc đời của Sanjay Dutt

Thảo luận trong 'Fshare.vn' bắt đầu bởi hatieupro7, 27/11/18.

  1. hatieupro7

    hatieupro7 Well-Known Member

    Tham gia ngày:
    26/9/10
    Bài viết:
    364
    Đã được cảm ơn:
    2,900
    Giới tính:
    Nam
    Nghề nghiệp:
    OSIN
    Nơi ở:
    Haiphong city
    SANJU (2018)
    CUỘC ĐỜI CỦA SANJAY DUTT (16+)
    IMDB (8.1/10): https://www.imdb.com/title/tt6452574/


    [​IMG]

    TRAILER


    SCREENSHOTS
    https://imgur.com/rBQRPih
    [​IMG]



    NỘI DUNG

    Mã:
    Complete name               : H:\Sanju 2018 Hindi 1080p NF WEB-DL H264 DDP 5.1 - NbT\Sanju 2018 Hindi 1080p NF WEB-DL H264 DDP 5.1 - NbT.mkv
    Format                      : Matroska
    Format version              : Version 4 / Version 2
    File size                   : 6.38 GiB
    Duration                    : 2 h 38 min
    Overall bit rate mode       : Variable
    Overall bit rate            : 5 746 kb/s
    Encoded date                : UTC 2018-10-14 15:58:16
    Writing application         : mkvmerge v26.0.0 ('In The Game') 64-bit
    Writing library             : libebml v1.3.6 + libmatroska v1.4.9
    Cover                       : Yes
    Attachments                 : cover.jpg
    Video
    ID                          : 1
    Format                      : AVC
    Format/Info                 : Advanced Video Codec
    Format profile              : [email protected]
    Format settings, CABAC      : Yes
    Format settings, ReFrames   : 3 frames
    Codec ID                    : V_MPEG4/ISO/AVC
    Duration                    : 2 h 38 min
    Bit rate mode               : Variable
    Bit rate                    : 5 110 kb/s
    Maximum bit rate            : 7 665 kb/s
    Width                       : 1 920 pixels
    Height                      : 1 080 pixels
    Display aspect ratio        : 16:9
    Frame rate mode             : Constant
    Frame rate                  : 24.000 FPS
    Color space                 : YUV
    Chroma subsampling          : 4:2:0
    Bit depth                   : 8 bits
    Scan type                   : Progressive
    Bits/(Pixel*Frame)          : 0.103
    Stream size                 : 5.66 GiB (89%)
    Writing library             : x264 core 148 r2715 7e75228
    Encoding settings           : cabac=1 / ref=3 / deblock=1:0:0 / analyse=0x1:0x111 / me=umh / subme=10 / psy=1 / psy_rd=1.00:0.00 / mixed_ref=1 / me_range=24 / chroma_me=1 / trellis=2 / 8x8dct=0 / cqm=0 / deadzone=21,11 / fast_pskip=1 / chroma_qp_offset=-2 / threads=8 / lookahead_threads=1 / sliced_threads=0 / nr=0 / decimate=1 / interlaced=0 / bluray_compat=0 / stitchable=1 / constrained_intra=0 / bframes=2 / b_pyramid=0 / b_adapt=2 / b_bias=0 / direct=3 / weightb=1 / open_gop=0 / weightp=2 / keyint=48 / keyint_min=25 / scenecut=0 / intra_refresh=0 / rc_lookahead=48 / rc=2pass / mbtree=1 / bitrate=5110 / ratetol=1.0 / qcomp=0.50 / qpmin=6 / qpmax=51 / qpstep=4 / cplxblur=20.0 / qblur=0.5 / vbv_maxrate=7665 / vbv_bufsize=10220 / nal_hrd=vbr / filler=0 / ip_ratio=1.40 / aq=1:1.00
    Default                     : Yes
    Forced                      : No
    Audio
    ID                          : 2
    Format                      : E-AC-3
    Format/Info                 : Enhanced Audio Coding 3
    Format settings, Endianness : Big
    Codec ID                    : A_EAC3
    Duration                    : 2 h 38 min
    Bit rate mode               : Constant
    Bit rate                    : 640 kb/s
    Channel(s)                  : 6 channels
    Channel positions           : Front: L C R, Side: L R, LFE
    Sampling rate               : 48.0 kHz
    Frame rate                  : 187.500 FPS (256 spf)
    Compression mode            : Lossy
    Stream size                 : 728 MiB (11%)
    Title                       : Hindi
    Language                    : Hindi
    Default                     : No
    Forced                      : No


    LINK DOWNLOAD:


    Nhấn nút Cảm ơn (dưới chân bài) để thấy link!


    VIETSUB BY BMV.Team
    Nhấn nút Cảm ơn (dưới chân bài) để thấy link!

    Chúc các bạn xem phim vui vẻ!
    #BMV.Team
    #Bollyw00ds
    #hatieupro
     
  2. Đang tải...


  3. LeeKunHee

    LeeKunHee Active Member

    Tham gia ngày:
    22/2/10
    Bài viết:
    246
    Đã được cảm ơn:
    196
    Giới tính:
    Nam
    Nghề nghiệp:
    DevOps
    Nơi ở:
    Vietnam
    Phan Thanh Bình and Ngoctuanok like this.

Chia sẻ trang này