[Tâm lý] Sarbjit 2016 Hindi 1080p BluRay x264 DTS-HDMA 7.1 - Hon3y ~ Người Tử Tù

Thảo luận trong 'Fshare.vn' bắt đầu bởi hatieupro7, 31/8/18.

  1. hatieupro7

    hatieupro7 Well-Known Member

    Tham gia ngày:
    26/9/10
    Bài viết:
    361
    Đã được cảm ơn:
    2,900
    Giới tính:
    Nam
    Nghề nghiệp:
    OSIN
    Nơi ở:
    Haiphong city
    SARBJIT (2016)
    NGƯỜI TỬ TÙ
    IMDB (7.3/10): https://www.imdb.com/title/tt5120640/


    [​IMG]

    TRAILER


    SCREENSHOTS
    https://imgur.com/a/LvTjLfw[​IMG]






    Mã:
    Complete name               : H:\Sarbjit 2016 Hindi 1080p BluRay x264 DTS-HDMA 7.1 - Hon3y [Exclusive]\Sarbjit 2016 Hindi 1080p BluRay x264 DTS-HDMA 7.1 - Hon3y [Exclusive].mkv[/CENTER]
    Format                      : Matroska
    Format version              : Version 4 / Version 2
    File size                   : 14.0 GiB
    Duration                    : 2 h 11 min
    Overall bit rate            : 15.2 Mb/s
    Encoded date                : UTC 2016-08-11 09:51:42
    Writing application         : mkvmerge v9.1.0 ('Little Earthquakes') 64bit
    Writing library             : libebml v1.3.3 + libmatroska v1.4.4
    Video
    ID                          : 1
    Format                      : AVC
    Format/Info                 : Advanced Video Codec
    Format profile              : [email protected]
    Format settings, CABAC      : Yes
    Format settings, ReFrames   : 5 frames
    Codec ID                    : V_MPEG4/ISO/AVC
    Duration                    : 2 h 11 min
    Bit rate                    : 9 968 kb/s
    Width                       : 1 920 pixels
    Height                      : 800 pixels
    Display aspect ratio        : 2.40:1
    Frame rate mode             : Constant
    Frame rate                  : 24.000 FPS
    Color space                 : YUV
    Chroma subsampling          : 4:2:0
    Bit depth                   : 8 bits
    Scan type                   : Progressive
    Bits/(Pixel*Frame)          : 0.270
    Stream size                 : 9.19 GiB (66%)
    Writing library             : x264 core 148 r2692 64f4e24
    Default                     : Yes
    Forced                      : No
    Audio
    ID                          : 2
    Format                      : DTS
    Format/Info                 : Digital Theater Systems
    Format profile              : MA / Core
    Mode                        : 16
    Format settings, Endianness : Big
    Codec ID                    : A_DTS
    Duration                    : 2 h 11 min
    Bit rate mode               : Variable / Constant
    Bit rate                    : 5 221 kb/s / 1 509 kb/s
    Channel(s)                  : 8 channels / 6 channels
    Channel positions           : Front: L C R, Side: L R, Back: L R, LFE / Front: L C R, Side: L R, LFE
    Sampling rate               : 48.0 kHz
    Frame rate                  : 93.750 FPS (512 spf)
    Bit depth                   : 24 bits
    Compression mode            : Lossless / Lossy
    Stream size                 : 4.81 GiB (34%)
    Default                     : Yes
    Forced                      : No



    LINK DOWNLOAD:

    Nhấn nút Cảm ơn (dưới chân bài) để thấy link!


    VIETSUB BY BMV.Team
    Nhấn nút Cảm ơn (dưới chân bài) để thấy link!

    Chúc các bạn xem phim vui vẻ! Nếu link die vui lòng inbox giùm mình nhé!
    #BMV.Team
    #Bollyw00ds
    #hatieupro​
     
    Chỉnh sửa cuối: 5/4/20
    comin, domanhpro1, anhtu203 and 87 others like this.
  2. Đang tải...


  3. gprsmms

    gprsmms Well-Known Member

    Tham gia ngày:
    27/4/10
    Bài viết:
    2,518
    Đã được cảm ơn:
    325
    Giới tính:
    Nam
    thanks
     
    hatieupro7 cảm ơn bài này.
  4. hatieupro7

    hatieupro7 Well-Known Member

    Tham gia ngày:
    26/9/10
    Bài viết:
    361
    Đã được cảm ơn:
    2,900
    Giới tính:
    Nam
    Nghề nghiệp:
    OSIN
    Nơi ở:
    Haiphong city
    Hoá trang của Ấn Độ ghê thật, từ hoa hậu thành 1 bà cô tiều tuỵ... không nhận ra luôn @@!
     
  5. hotboiz

    hotboiz Member

    Tham gia ngày:
    7/1/11
    Bài viết:
    86
    Đã được cảm ơn:
    29
    Cám ơn bạn rất nhiều.
     
  6. residentevil

    residentevil Well-Known Member

    Tham gia ngày:
    6/6/09
    Bài viết:
    867
    Đã được cảm ơn:
    412
    Phim nghiệt ngã quá...
     
  7. hatieupro7

    hatieupro7 Well-Known Member

    Tham gia ngày:
    26/9/10
    Bài viết:
    361
    Đã được cảm ơn:
    2,900
    Giới tính:
    Nam
    Nghề nghiệp:
    OSIN
    Nơi ở:
    Haiphong city
    Phim dựa trên sự kiện có thật nên nó vậy đấy :( khóc...
     

Chia sẻ trang này