[Tâm Lý ]Showgirls 1995 720p BluRay x264 DTS-HDS

Thảo luận trong 'Fshare.vn' bắt đầu bởi xemaydinh, 18/9/21.

  1. xemaydinh

    xemaydinh Tem

    Tham gia ngày:
    3/7/10
    Bài viết:
    32,901
    Đã được cảm ơn:
    147,553
    Showgirls 1995 720p BluRay x264 DTS-HDS | 18+
    [​IMG]




    nhiều cảnh nóng

    Đầy cá tính, xinh đẹp Nomi Mallone nhất định trở thành một vũ công ở Las Vegas dù chuyện gì xảy ra đi nữa; nhưng cô lại bắt đầu bằng nghề thoát y. Nhờ cô bạn thợ may cùng phòng giới thiệu, Nomi được cô bạn đồng tính Cristal, ngôi sao của vũ điệu thoát y điên cuồng mang tên "Goddess" (Nữ thần), quan tâm giúp đỡ và giúp cô có được 1 chỗ ở Stardust Casino. Bị ảnh hưởng của Cristal, Nomi dần dần đi theo phong cách của Nữ Thần và giải quyết tất cả những gì bẩn thỉu nhất đằng sau hậu trường, kể cả Crystal & tên trùm dấu mặt Zack.


    Một bộ phim tuy bị các nhà phê bình chỉ trính nhưng Showgirl vẫn được công chúng đánh giá cao vì tính trung thực của nó về nghề thoát y ở Las Vegas; những sự bẩn thỉu, nhớp nhúa đằng sau ánh hào quang rực rỡ trên sân khấu. Chính vì thế, sau Showgirl, đã có rất nhiều bộ phim ăn theo nhưng vẫn ko tạo được ấn tượng & tiếng vang như những gì Showgirl đã làm.

    Tuy là một bộ phim cấp R nhưng xuyên suốt bộ phim, những cảnh make love gần như ko hề đề cập tới, có chăng chỉ là những màn thoát y đầy tính kích dục và nghệ thuật. Và với 1 cái poster giới thiệu phim quá độc; có thể nói, Showgirl là bộ phim thành công nhất cho loạt phim nói về nghệ thuật thoát y...

    General

    Complete name : E:\pt\Showgirls.1995.720p.BluRay.x264.DTS-HDS.mkv
    Format : Matroska
    Format version : Version 4 / Version 2
    File size : 8.57 GiB
    Duration : 2 h 11 min
    Overall bit rate : 9 343 kb/s
    Movie name : Showgirls 1995 720p BluRay DTS x264-HDS
    Encoded date : UTC 2016-10-07 09:12:21
    Writing application : mkvmerge v9.4.2 ('So High') 64bit
    Writing library : libebml v1.3.4 + libmatroska v1.4.5

    Video
    ID : 1
    Format : AVC
    Format/Info : Advanced Video Codec
    Format profile : [email protected]
    Format settings : CABAC / 12 Ref Frames
    Format settings, CABAC : Yes
    Format settings, ReFrames : 12 frames
    Codec ID : V_MPEG4/ISO/AVC
    Duration : 2 h 11 min
    Bit rate : 7 793 kb/s
    Width : 1 280 pixels
    Height : 528 pixels
    Display aspect ratio : 2.40:1
    Frame rate mode : Constant
    Frame rate : 23.976 (24000/1001) FPS
    Color space : YUV
    Chroma subsampling : 4:2:0
    Bit depth : 8 bits
    Scan type : Progressive
    Bits/(Pixel*Frame) : 0.481
    Stream size : 7.15 GiB (83%)
    Title : [email protected]
    Writing library : x264 core 148 r2699+6+41 29a38aa Yuuki [[email protected]:2:0 X86_64][GCC 5.3.0]
    Encoding settings : cabac=1 / ref=12 / deblock=1:-3:-3 / analyse=0x3:0x113 / me=umh / subme=11 / psy=1 / fade_compensate=0.00 / psy_rd=1.00:0.05 / mixed_ref=1 / me_range=32 / chroma_me=1 / trellis=2 / 8x8dct=1 / cqm=0 / deadzone=21,11 / fast_pskip=0 / chroma_qp_offset=-2 / threads=32 / lookahead_threads=4 / sliced_threads=0 / nr=0 / decimate=1 / interlaced=0 / bluray_compat=0 / constrained_intra=0 / fgo=0 / bframes=8 / b_pyramid=2 / b_adapt=2 / b_bias=0 / direct=3 / weightb=1 / open_gop=0 / weightp=2 / keyint=250 / keyint_min=23 / scenecut=40 / intra_refresh=0 / rc=crf / mbtree=0 / crf=17.2000 / qcomp=0.60 / qpmin=0:0:0 / qpmax=69:69:69 / qpstep=4 / ip_ratio=1.40 / pb_ratio=1.30 / aq=3:0.90
    Default : Yes
    Forced : No

    Audio
    ID : 2
    Format : DTS
    Format/Info : Digital Theater Systems
    Codec ID : A_DTS
    Duration : 2 h 11 min
    Bit rate mode : Constant
    Bit rate : 1 509 kb/s
    Channel(s) : 6 channels
    Channel positions : Front: L C R, Side: L R, LFE
    Sampling rate : 48.0 kHz
    Frame rate : 93.750 FPS (512 SPF)
    Bit depth : 24 bits
    Compression mode : Lossy
    Stream size : 1.38 GiB (16%)
    Title : English
    Language : English
    Default : Yes
    Forced : No

    Text #1
    ID : 3
    Format : PGS
    Muxing mode : zlib
    Codec ID : S_HDMV/PGS
    Codec ID/Info : Picture based subtitle format used on BDs/HD-DVDs
    Duration : 2 h 2 min
    Bit rate : 15.3 kb/s
    Count of elements : 2762
    Stream size : 13.5 MiB (0%)
    Title : CHS
    Language : Chinese
    Default : Yes
    Forced : No

    Text #2
    ID : 4
    Format : PGS
    Muxing mode : zlib
    Codec ID : S_HDMV/PGS
    Codec ID/Info : Picture based subtitle format used on BDs/HD-DVDs
    Duration : 2 h 2 min
    Bit rate : 15.7 kb/s
    Count of elements : 2762
    Stream size : 13.8 MiB (0%)
    Title : CHT
    Language : Chinese
    Default : No
    Forced : No

    Text #3
    ID : 5
    Format : PGS
    Muxing mode : zlib
    Codec ID : S_HDMV/PGS
    Codec ID/Info : Picture based subtitle format used on BDs/HD-DVDs
    Duration : 2 h 10 min
    Bit rate : 10.1 kb/s
    Count of elements : 4052
    Stream size : 9.43 MiB (0%)
    Title : ENG
    Language : English
    Default : No
    Forced : No








    mhd

    720p

    1080p

    Thuyết minh

    Remux

    ISO
     
    Chỉnh sửa cuối: 18/9/21
    thinhviolin cảm ơn bài này.
  2. thinhviolin

    thinhviolin Active Member

    Tham gia ngày:
    23/8/10
    Bài viết:
    315
    Đã được cảm ơn:
    104
    Nơi ở:
    SaiGon-South VietNam
    Lâu lắm mới thây đại ca tái xuất.
    Chúc bình an.
     

Chia sẻ trang này