[Tâm Lý ] Suffering of Ninko 2016 720p BluRay x264 DTS-ghouls -Nỗi Khổ Của Ninko

Thảo luận trong '4share.vn' bắt đầu bởi xemaydinh, 2/12/21.

  1. xemaydinh

    xemaydinh Tem

    Tham gia ngày:
    3/7/10
    Bài viết:
    32,730
    Đã được cảm ơn:
    146,087
    Suffering of Ninko 2016 720p BluRay x264 DTS-ghouls | 18+

    Nỗi Khổ Của Ninko
    [​IMG]
    Bộ phim giả tưởng khiêu dâm này lấy bối cảnh thời kỳ Edo của Nhật Bản giới thiệu một nhà sư Phật giáo không thể cưỡng lại tình dục, đang đấu tranh để giữ đạo hạnh khi anh ta bắt đầu có những giấc mơ xác thịt kỳ lạ.


    General
    Unique ID : 40755359255502700419583242334893316038 (0x1EA9325984B96DFEBE99DC0A817517C6)
    Complete name : suffering.of.ninko.2016.720p.bluray.x264-ghouls.mkv

    Format : Matroska

    Format version : Version 4 / Version 2
    File size : 3.28 GiB
    Duration : 1 h 10 min
    Overall bit rate : 6 630 kb/s
    Encoded date : UTC 2018-07-27 15:25:34
    Writing application : mkvmerge v25.0.0 ('Prog Noir') 64-bit
    Writing library : libebml v1.3.6 + libmatroska v1.4.9

    Video
    ID : 1
    Format : AVC
    Format/Info : Advanced Video Codec
    Format profile : [email protected]
    Format settings : CABAC / 5 Ref Frames
    Format settings, CABAC : Yes
    Format settings, RefFrames : 5 frames
    Codec ID : V_MPEG4/ISO/AVC
    Duration : 1 h 10 min
    Bit rate : 5 121 kb/s
    Width : 1 280 pixels
    Height : 720 pixels
    Display aspect ratio : 16:9
    Frame rate mode : Constant
    Frame rate : 23.976 (24000/1001) FPS
    Color space : YUV
    Chroma subsampling : 4:2:0
    Bit depth : 8 bits
    Scan type : Progressive
    Bits/(Pixel*Frame) : 0.232
    Stream size : 2.53 GiB (77%)
    Writing library : x264 core 155 r2901 7d0ff22
    Encoding settings : cabac=1 / ref=5 / deblock=1:-3:-3 / analyse=0x3:0x133 / me=umh / subme=8 / psy=1 / psy_rd=1.00:0.00 / mixed_ref=1 / me_range=16 / chroma_me=1 / trellis=1 / 8x8dct=1 / cqm=0 / deadzone=21,11 / fast_pskip=0 / chroma_qp_offset=-2 / threads=22 / lookahead_threads=3 / sliced_threads=0 / nr=0 / decimate=1 / interlaced=0 / bluray_compat=0 / constrained_intra=0 / bframes=3 / b_pyramid=2 / b_adapt=1 / b_bias=0 / direct=3 / weightb=1 / open_gop=0 / weightp=2 / keyint=250 / keyint_min=23 / scenecut=40 / intra_refresh=0 / rc_lookahead=50 / rc=2pass / mbtree=1 / bitrate=5121 / ratetol=1.0 / qcomp=0.60 / qpmin=0 / qpmax=69 / qpstep=4 / cplxblur=20.0 / qblur=0.5 / vbv_maxrate=62500 / vbv_bufsize=78125 / nal_hrd=none / filler=0 / ip_ratio=1.40 / aq=1:1.00
    Default : Yes
    Forced : No

    Audio
    ID : 2
    Format : DTS
    Format/Info : Digital Theater Systems
    Codec ID : A_DTS
    Duration : 1 h 10 min
    Bit rate mode : Constant
    Bit rate : 1 509 kb/s
    Channel(s) : 2 channels
    Channel positions : Front: L R
    Sampling rate : 48.0 kHz
    Frame rate : 93.750 FPS (512 SPF)
    Bit depth : 24 bits
    Compression mode : Lossy
    Stream size : 764 MiB (23%)
    Language : Japanese
    Default : Yes
    Forced : No

    Text
    ID : 3
    Format : UTF-8
    Codec ID : S_TEXT/UTF8
    Codec ID/Info : UTF-8 Plain Text
    Duration : 1 h 6 min
    Bit rate : 17 b/s
    Count of elements : 344
    Stream size : 8.73 KiB (0%)
    Language : English
    Default : Yes
    Forced : No


    mhd

    720p https://www.hdvietnam.com/threads/t...ay-x264-dts-ghouls-noi-kho-cua-ninko.1728090/

    1080p https://www.hdvietnam.com/threads/t...ay-x264-dts-ghouls-noi-kho-cua-ninko.1728230/

    Thuyết minh

    Remux
    ISO
     
    baongoc2909 cảm ơn bài này.
  2. Đang tải...


Chia sẻ trang này