[Tâm Lý | Tình Cảm] Miss March 2009 UNRATED 720p BluRay x264-iNFAMOUS - Hoa Hậu Playboy

Thảo luận trong '4share.vn' bắt đầu bởi Martial, 26/4/16.

  1. Martial

    Martial New Member

    Tham gia ngày:
    6/4/16
    Bài viết:
    421
    Đã được cảm ơn:
    477
    Miss March 2009 UNRATED 720p BluRay x264-iNFAMOUS
    Hoa Hậu Playboy



    [​IMG]

    2 người bạn thân nhau từ nhỏ với Eugene Pratt (Zach Cregger) và Tucker Cleigh (Trevor Moore). Tucker muốn xem bộ sưu tập bóng chày của Eugene và bất ngờ họ tìm thấy bên trong đó một tờ tạp chí playboy Sau khi lớn lên họ đã có nhiều băn khoăn về tình dục và cần có sự giải thích do cứ suốt ngày xem playboy mà và gặp được mấy minh tinh bên playboy!!


    Mã:
    General
    Unique ID                                : 182001596323748504574301347299510932374 (0x88EC3B8071232864A425471776975396)
    Complete name                            : Miss March 2009 UNRATED 720p BluRay x264-iNFAMOUS.mkv
    Format                                   : Matroska
    Format version                           : Version 2
    File size                                : 4.37 GiB
    Duration                                 : 1h 33mn
    Overall bit rate                         : 6 690 Kbps
    Encoded date                             : UTC 2009-07-24 12:51:55
    Writing application                      : mkvmerge v2.9.5 ('Tu es le seul') built on Jun 17 2009 16:28:30
    
    
    Writing library                          : libebml v0.7.8 + libmatroska v0.8.1
    
    Video
    ID                                       : 1
    Format                                   : AVC
    Format/Info                              : Advanced Video Codec
    Format profile                           : [email protected]
    Format settings, CABAC                   : Yes
    Format settings, ReFrames                : 5 frames
    Codec ID                                 : V_MPEG4/ISO/AVC
    Duration                                 : 1h 33mn
    Bit rate                                 : 5 179 Kbps
    Width                                    : 1 280 pixels
    Height                                   : 688 pixels
    Display aspect ratio                     : 1.860
    Frame rate                               : 23.976 fps
    Color space                              : YUV
    Chroma subsampling                       : 4:2:0
    Bit depth                                : 8 bits
    Scan type                                : Progressive
    Bits/(Pixel*Frame)                       : 0.245
    Stream size                              : 3.30 GiB (75%)
    Writing library                          : x264 core 67 r1173M f6d3166
    Encoding settings                        : cabac=1 / ref=5 /  deblock=1:0:0 / analyse=0x3:0x133 / me=umh / subme=7 / psy_rd=1.0:0.0 /  mixed_ref=1 / me_range=16 / chroma_me=1 / trellis=1 / 8x8dct=1 / cqm=0 /  deadzone=21,11 / chroma_qp_offset=-2 / threads=12 / nr=0 / decimate=1 /  mbaff=0 / bframes=3 / b_pyramid=1 / b_adapt=1 / b_bias=0 / direct=1 /  wpredb=1 / keyint=250 / keyint_min=25 / scenecut=40 / rc=2pass /  bitrate=5179 / ratetol=1.0 / qcomp=0.60 / qpmin=10 / qpmax=51 / qpstep=4  / cplxblur=20.0 / qblur=0.5 / ip_ratio=1.40 / pb_ratio=1.30 / aq=1:1.00
    Default                                  : Yes
    Forced                                   : No
    
    Audio
    ID                                       : 2
    Format                                   : DTS
    Format/Info                              : Digital Theater Systems
    Codec ID                                 : A_DTS
    Duration                                 : 1h 33mn
    Bit rate mode                            : Constant
    Bit rate                                 : 1 510 Kbps
    Channel(s)                               : 6 channels
    Channel positions                        : Front: L C R, Side: L R, LFE
    Sampling rate                            : 48.0 KHz
    Bit depth                                : 24 bits
    Compression mode                         : Lossy
    Stream size                              : 1 010 MiB (23%)
    Language                                 : English
    Default                                  : Yes
    Forced                                   : No
    
    Text
    ID                                       : 3
    Format                                   : UTF-8
    Codec ID                                 : S_TEXT/UTF8
    Codec ID/Info                            : UTF-8 Plain Text
    Language                                 : English
    Default                                  : Yes
    Forced                                   : No

    Hình Ảnh
    [​IMG] [​IMG] [​IMG] [​IMG] [​IMG] [​IMG] [​IMG] [​IMG] [​IMG] [​IMG]


    Trailer
    [video=youtube;wk1_kDJhyBk]https://www.youtube.com/watch?v=wk1_kDJhyBk [/video]


    Download




    Link 4Share




    Phụ Đề
     
  2. Đang tải...


Chia sẻ trang này