[Tâm Lý] Top Stripper 1982 JAPANESE 1080p BluRay x264 FLAC 2.0-HANDJOB - Vũ Công Thoát Y

Thảo luận trong '4share.vn' bắt đầu bởi xemaydinh, 15/11/21.

  1. xemaydinh

    xemaydinh Tem

    Tham gia ngày:
    3/7/10
    Bài viết:
    32,813
    Đã được cảm ơn:
    146,635
    Top Stripper 1982 JAPANESE 1080p BluRay x264 FLAC 2.0-HANDJOB | 18+

    Vũ Công Thoát Y

    [​IMG]



    Trong câu chuyện về tuổi mới lớn này, chàng trai trẻ Yoichi (Kensuke Miyawaki) phải lòng Gloria (Kaori Okamoto), người làm việc tại công ty thoát y địa phương. Yoichi ngây thơ tham dự các buổi trình diễn của Gloria mỗi ngày khi tâm trí anh ngập tràn hình ảnh của cô ấy...


    Video
    ID : 1
    Format : AVC
    Format/Info : Advanced Video Codec
    Format profile : [email protected]
    Format settings : CABAC / 4 Ref Frames
    Format settings, CABAC : Yes
    Format settings, Reference frames : 4 frames
    Codec ID : V_MPEG4/ISO/AVC
    Duration : 1 h 7 min
    Bit rate : 9 399 kb/s
    Width : 1 920 pixels
    Height : 1 034 pixels
    Display aspect ratio : 1.85:1
    Frame rate mode : Constant
    Frame rate : 23.976 (24000/1001) FPS
    Color space : YUV
    Chroma subsampling : 4:2:0
    Bit depth : 8 bits
    Scan type : Progressive
    Bits/(Pixel*Frame) : 0.197
    Stream size : 4.42 GiB (95%)
    Writing library : x264 core 157 r2935 545de2f
    Encoding settings : cabac=1 / ref=4 / deblock=1:-3:-3 / analyse=0x3:0x133 / me=umh / subme=10 / psy=1 / psy_rd=1.00:0.00 / mixed_ref=1 / me_range=32 / chroma_me=1 / trellis=2 / 8x8dct=1 / cqm=0 / deadzone=21,11 / fast_pskip=0 / chroma_qp_offset=-2 / threads=18 / lookahead_threads=4 / sliced_threads=0 / nr=0 / decimate=0 / interlaced=0 / bluray_compat=0 / constrained_intra=0 / bframes=16 / b_pyramid=2 / b_adapt=2 / b_bias=0 / direct=3 / weightb=1 / open_gop=0 / weightp=2 / keyint=240 / keyint_min=24 / scenecut=40 / intra_refresh=0 / rc_lookahead=60 / rc=crf / mbtree=0 / crf=19.0 / qcomp=0.60 / qpmin=0 / qpmax=69 / qpstep=4 / vbv_maxrate=62500 / vbv_bufsize=78125 / crf_max=0.0 / nal_hrd=none / filler=0 / ip_ratio=1.40 / pb_ratio=1.30 / aq=2:1.00
    Default : Yes
    Forced : No
    Color range : Limited
    Color primaries : BT.709
    Transfer characteristics : BT.709
    Matrix coefficients : BT.709

    Audio
    ID : 2
    Format : FLAC
    Format/Info : Free Lossless Audio Codec
    Codec ID : A_FLAC
    Duration : 1 h 7 min
    Bit rate mode : Variable
    Bit rate : 499 kb/s
    Channel(s) : 2 channels
    Channel layout : L R
    Sampling rate : 48.0 kHz
    Frame rate : 11.719 FPS (4096 SPF)
    Bit depth : 16 bits
    Compression mode : Lossless
    Stream size : 240 MiB (5%)
    Writing library : libFLAC 1.2.1 (UTC 2007-09-17)
    Language : Japanese
    Default : Yes
    Forced : No

    Text #1
    ID : 3
    Format : UTF-8
    Codec ID : S_TEXT/UTF8
    Codec ID/Info : UTF-8 Plain Text
    Duration : 1 h 7 min
    Bit rate : 41 b/s
    Count of elements : 741
    Stream size : 20.3 KiB (0%)
    Language : English
    Default : Yes
    Forced : No

    Text #2
    ID : 4
    Format : PGS
    Muxing mode : zlib
    Codec ID : S_HDMV/PGS
    Codec ID/Info : Picture based subtitle format used on BDs/HD-DVDs
    Duration : 1 h 6 min
    Bit rate : 32.4 kb/s
    Count of elements : 1771
    Stream size : 15.5 MiB (0%)
    Language : Japanese
    Default : No
    Forced : No

    Menu
    00:00:00.000 : :Love at First Sight
    00:07:24.945 : :Lovely Gloria
    00:17:06.234 : :present
    00:26:46.480 : :Tiny Promise
    00:32:07.342 : :The Last Day
    00:44:56.986 : :Cue
    00:56:45.819 : :The Lover's Return
    01:02:06.932 : :Stage Reunion



    [​IMG]
    [​IMG]
    [​IMG]


    mhd

    720p

    1080p

    Thuyết minh

    Remux

    ISO
     
  2. Đang tải...


Chia sẻ trang này